Помпеи / Pompeii (Пол У. С. Андерсон / Paul W.S. Anderson) [2014, США, Германия, Канада, Приключения, боевик, драма, мелодрама, BDRip-AVC] Dub + Sub Rus,Eng + Original Eng

Reply to topic
DL-List and Torrent activity
Size:  2.18 GB   |    Registered:  3 years 1 month   |    Completed:  0 times

Seeder not seen: Never

 
   
 
 
Author Message

admin ®

Gender: Male

Longevity: 3 years 2 months

Posts: 10109

Post 11-Oct-2017 23:28

[Quote]

ПомпеиPompeii«Некоторые истории пишутся кровью»
Страна: США, Германия, Канада
Жанр: Приключения, боевик, драма, мелодрама
Год выпуска: 2014
Продолжительность: 01:45:32
Перевод: Профессиональный (дублированный) [Лицензия BD RUS]
Субтитры: русские,английские
Оригинальная аудиодорожка: английский
Режиссер: Пол У. С. Андерсон / Paul W.S. Anderson
В ролях: Кит Харингтон, Эмили Браунинг, Кифер Сазерленд, Адевале Акиннуойе-Агбадже, Джаред Харрис, Кэрри-Энн Мосс, Джессика Лукас, Саша Ройз, Джо Пинг, Карри Грэм
Описание: История любви раба Майло и благородной Кассии, обрученной с римским сенатором, на фоне извержения Везувия, которое навсегда стерло с лица земли древнеримский город Помпеи…
Доп. информация:
Автор рипа: potroks
Качество видео: BDRip-AVC |Помпеи / Pompeii(2014) 1080p BD-Remux|
Формат видео: MKV
Видео: х.264, 1032x430 (2,40:1), 23,976 fps, 2077 Кbps, 0.195 bit/pixel
Аудио: 48 kHz, AC3 Dolby Digital, 3/2 (L,C,R,l,r) + LFE ch, 448.00 kbps | RUS
Аудио 2: 48 kHz, AC3 Dolby Digital, 3/2 (L,C,R,l,r) + LFE ch, 448.00 kbps | ENG
Формат субтитров: softsub (SRT)
Доп. информация о субтитрах: отключаемые

MediaInfo

General
Unique ID : 246428932467296968752679138259546359307 (0xB9647C6BD21F65699036A559FC63460B)
Complete name : F:\Фильмы\Помпеи\Pompeyi.2014.BDRip.x264.mkv
Format : Matroska
Format version : Version 4 / Version 2
File size : 2.18 GiB
Duration : 1h 44mn
Overall bit rate : 2 973 Kbps
Movie name : Pompeii
Encoded date : UTC 2014-05-17 12:03:35
Writing application : mkvmerge v5.9.0 ('On The Loose') built on Dec 15 2012 16:39:58
Writing library : libebml v1.3.0 + libmatroska v1.4.0
Video
ID : 1
Format : AVC
Format/Info : Advanced Video Codec
Format profile : High@L4.1
Format settings, CABAC : Yes
Format settings, ReFrames : 10 frames
Codec ID : V_MPEG4/ISO/AVC
Duration : 1h 44mn
Bit rate : 2 077 Kbps
Width : 1 032 pixels
Height : 430 pixels
Display aspect ratio : 2.40:1
Frame rate mode : Constant
Frame rate : 23.976 fps
Color space : YUV
Chroma subsampling : 4:2:0
Bit depth : 8 bits
Scan type : Progressive
Bits/(Pixel*Frame) : 0.195
Stream size : 1.48 GiB (68%)
Title : Pompeii
Writing library : x264 core 130 r2273 b3065e6
Encoding settings : cabac=1 / ref=10 / deblock=1:-2:-2 / analyse=0x3:0x133 / me=umh / subme=11 / psy=1 / psy_rd=1.00:0.03 / mixed_ref=1 / me_range=32 / chroma_me=1 / trellis=2 / 8x8dct=1 / cqm=0 / deadzone=21,11 / fast_pskip=0 / chroma_qp_offset=-3 / threads=9 / lookahead_threads=6 / sliced_threads=0 / nr=0 / decimate=0 / interlaced=0 / bluray_compat=0 / constrained_intra=0 / bframes=11 / b_pyramid=2 / b_adapt=2 / b_bias=0 / direct=3 / weightb=1 / open_gop=0 / weightp=2 / keyint=250 / keyint_min=23 / scenecut=40 / intra_refresh=0 / rc_lookahead=60 / rc=2pass / mbtree=0 / bitrate=2077 / ratetol=1.0 / qcomp=0.70 / qpmin=0 / qpmax=69 / qpstep=4 / cplxblur=20.0 / qblur=0.5 / vbv_maxrate=20000 / vbv_bufsize=20000 / nal_hrd=none / ip_ratio=1.35 / pb_ratio=1.25 / aq=1:0.80
Language : English
Default : Yes
Forced : No
Audio #1
ID : 2
Format : AC-3
Format/Info : Audio Coding 3
Mode extension : CM (complete main)
Format settings, Endianness : Big
Codec ID : A_AC3
Duration : 1h 44mn
Bit rate mode : Constant
Bit rate : 448 Kbps
Channel(s) : 6 channels
Channel positions : Front: L C R, Side: L R, LFE
Sampling rate : 48.0 KHz
Bit depth : 16 bits
Compression mode : Lossy
Delay relative to video : 20ms
Stream size : 336 MiB (15%)
Title : Dub | DD 5.1 @ 448 kbps - BD RUS
Language : Russian
Default : Yes
Forced : Yes
Audio #2
ID : 3
Format : AC-3
Format/Info : Audio Coding 3
Mode extension : CM (complete main)
Format settings, Endianness : Big
Codec ID : A_AC3
Duration : 1h 44mn
Bit rate mode : Constant
Bit rate : 448 Kbps
Channel(s) : 6 channels
Channel positions : Front: L C R, Side: L R, LFE
Sampling rate : 48.0 KHz
Bit depth : 16 bits
Compression mode : Lossy
Stream size : 336 MiB (15%)
Title : Original | DD 5.1 @ 448 kbps
Language : English
Default : No
Forced : No
Text #1
ID : 4
Format : UTF-8
Codec ID : S_TEXT/UTF8
Codec ID/Info : UTF-8 Plain Text
Language : Russian
Default : No
Forced : No
Text #2
ID : 5
Format : UTF-8
Codec ID : S_TEXT/UTF8
Codec ID/Info : UTF-8 Plain Text
Title : Full
Language : English
Default : No
Forced : No
Text #3
ID : 6
Format : UTF-8
Codec ID : S_TEXT/UTF8
Codec ID/Info : UTF-8 Plain Text
Title : SDH
Language : English
Default : No
Forced : No
Text #4
ID : 7
Format : UTF-8
Codec ID : S_TEXT/UTF8
Codec ID/Info : UTF-8 Plain Text
Title : Comments
Language : English
Default : No
Forced : No
Menu
00:05:27.076 : en:(01)00:05:27:076
00:09:51.674 : en:(02)00:09:51:674
00:15:58.457 : en:(03)00:15:58:457
00:19:52.858 : en:(04)00:19:52:858
00:26:45.103 : en:(05)00:26:45:103
00:32:36.621 : en:(06)00:32:36:621
00:38:18.838 : en:(07)00:38:18:838
00:47:35.811 : en:(08)00:47:35:811
00:52:17.717 : en:(09)00:52:17:717
01:03:25.218 : en:(10)01:03:25:218
01:09:02.930 : en:(11)01:09:02:930
01:17:27.309 : en:(12)01:17:27:309
01:23:46.521 : en:(13)01:23:46:521
01:30:04.148 : en:(14)01:30:04:148
01:35:08.119 : en:(15)01:35:08:119

Скриншот c названием фильма

Скриншоты

 GOLD TORRENT! DOWNLOAD TRAFFIC DOES NOT CONSIDER! 
Torrent: Registered [ 2017-10-11 23:28 ]   · 3662FC0D766E01D64BEFD7D9CBEBC460ACC184C1

Download .torrent

Download

12 KB

Status: checked
Completed: 0 times
Size: 2.18 GB
Поделиться:
terms.php
[Profile] [PM]
Display posts:    
Reply to topic

Current time is: 27-Nov 12:50

All times are UTC + 3



You cannot post new topics in this forum
You cannot reply to topics in this forum
You cannot edit your posts in this forum
You cannot delete your posts in this forum
You cannot vote in polls in this forum
You cannot attach files in this forum
You can download files in this forum