Команда восемь: В тылу врага / Team Eight: Behind Enemy Lines (Роэль Рейн / Roel Reiné) [2014, США, Боевик, военный, BDRip] MVO + Sub Rus, Eng + Original Eng

Reply to topic
DL-List and Torrent activity
Size:  2.05 GB   |    Registered:  4 months 16 days   |    Completed:  0 times

Seeder not seen: Never

 
   
 
 
Author Message

admin ®

Gender: Male

Longevity: 3 years

Posts: 10054

Post 11-Oct-2017 23:22

[Quote]

Команда восемь: В тылу врагаTeam Eight: Behind Enemy Lines
Страна: США
Жанр: Боевик, военный
Год выпуска: 2014
Продолжительность: 01:37:39
Перевод: Профессиональный (многоголосый закадровый)
Субтитры: русские,английские
Оригинальная аудиодорожка: английский
Режиссер: Роэль Рейн / Roel Reiné
В ролях: Том Сайзмор, Лэнгли Кирквуд, Таня ван Граан, Лекс Шрэпнел, Юджин Хумбанйива, Бонни Ли Буман, Орели Мерьель, Дилан Эди, Дэррон Каллиган, Энтони Осейеми
Описание: Команда Восемь должна бороться далеко в Африке, на секретном урановом руднике и помешать своему опасному врагу провезти контрабандой опасное оружие за границу.
Доп. информация:

Качество видео: BDRip |Команда восемь: В тылу врага / Team Eight: Behind Enemy Lines(2014) Blu-Ray Remux 1080p|
Формат видео: AVI
Видео: 720x400 (16:9), 24 fps, XviD build 50 ~2093 kbps avg, 0.30 bit/pixel
Аудио: AC3; 448 kbps; 6 Ch; 48 kHz (Rus)
Аудио 2: AC3; 448 kbps; 6 Ch; 48 kHz (Eng)
Формат субтитров: softsub (SRT)
Доп. информация о субтитрах: Русские, Английские (внешние*srt)

MediaInfo

General
Complete name : F:\Фильмы\Команда восемь\Seal Team Eight Behind Enemy Lines.2014.BDRip.avi
Format : AVI
Format/Info : Audio Video Interleave
Format profile : OpenDML
File size : 2.05 GiB
Duration : 1h 37mn
Overall bit rate : 3 008 Kbps
Movie name : Seal Team Eight Behind Enemy Lines.2014.BDRip
Director : rip by maygli
Writing application : VirtualDubModRus 1.5.10.2 (build 2542/release)
Copyright : www.starbit.org (RG Rulya74)
Video
ID : 0
Format : MPEG-4 Visual
Format profile : Advanced Simple@L5
Format settings, BVOP : 1
Format settings, QPel : No
Format settings, GMC : No warppoints
Format settings, Matrix : Custom
Codec ID : XVID
Codec ID/Hint : XviD
Duration : 1h 37mn
Bit rate : 2 093 Kbps
Width : 720 pixels
Height : 400 pixels
Display aspect ratio : 16:9
Frame rate : 23.976 fps
Color space : YUV
Chroma subsampling : 4:2:0
Bit depth : 8 bits
Scan type : Progressive
Compression mode : Lossy
Bits/(Pixel*Frame) : 0.303
Stream size : 1.43 GiB (70%)
Writing library : XviD 65
Audio #1
ID : 1
Format : AC-3
Format/Info : Audio Coding 3
Mode extension : CM (complete main)
Format settings, Endianness : Big
Codec ID : 2000
Duration : 1h 37mn
Bit rate mode : Constant
Bit rate : 448 Kbps
Channel(s) : 6 channels
Channel positions : Front: L C R, Side: L R, LFE
Sampling rate : 48.0 KHz
Bit depth : 16 bits
Compression mode : Lossy
Stream size : 313 MiB (15%)
Alignment : Split accross interleaves
Interleave, duration : 42 ms (1.00 video frame)
Interleave, preload duration : 500 ms
Title : Профессиональный (многоголосый закадровый)
Audio #2
ID : 2
Format : AC-3
Format/Info : Audio Coding 3
Mode extension : CM (complete main)
Format settings, Endianness : Big
Codec ID : 2000
Duration : 1h 37mn
Bit rate mode : Constant
Bit rate : 448 Kbps
Channel(s) : 6 channels
Channel positions : Front: L C R, Side: L R, LFE
Sampling rate : 48.0 KHz
Bit depth : 16 bits
Compression mode : Lossy
Stream size : 313 MiB (15%)
Alignment : Split accross interleaves
Interleave, duration : 42 ms (1.00 video frame)
Interleave, preload duration : 500 ms
Title : Оригинал (Английский)

Скриншот c названием фильма

Скриншоты

 GOLD TORRENT! DOWNLOAD TRAFFIC DOES NOT CONSIDER! 
Torrent: Registered [ 2020-06-06 06:10 ]   · 5453742A4FBB274C7D4AF893B333C000D316AA1D

Download .torrent

Download

11 KB

Status: checked
Completed: 0 times
Size: 2.05 GB
Поделиться:
terms.php
[Profile] [PM]
Display posts:    
Reply to topic

Current time is: 23-Oct 05:24

All times are UTC + 3



You cannot post new topics in this forum
You cannot reply to topics in this forum
You cannot edit your posts in this forum
You cannot delete your posts in this forum
You cannot vote in polls in this forum
You cannot attach files in this forum
You can download files in this forum