Ури: Нападение на базу / Uri: The Surgical Strike (2018) BDRemux 1080p | P

Reply to topic
DL-List and Torrent activity [Update пиров]
Size:  19 GB   |    Registered:  3 months 28 days   |    Completed:  0 times
Seeders:  23  [  0 KB/s  ]   Leechers:  1  [  0 KB/s  ]   Show peers in full details
 
   
 
 
Author Message

admin ®

Gender: Male

Longevity: 3 years 10 months

Posts: 12744

Post 03-Apr-2021 10:44

[Quote]

Название: Ури: Нападение на базу
Оригинальное название: Uri: The Surgical Strike
Год выпуска: 2018
Страна: Индия
Студия: Bulb Chamka, RSVP
Жанр: боевик, драма, военный, история
Продолжительность: 02:16:37
Перевод 1: Профессиональный (многоголосый закадровый) | Zee-TV. Запись с канала: SnegkaVasil. Синхрон. звука: SnegkaVasil
Перевод 2: Профессиональный (многоголосый закадровый) | Honey&Haseena. Озвучка: Маргарита Сахно, Екатерина Муравицкая, Кирилл Патрино, Михаил Цареградский и Константин Федосеев. Перевод и редакция: Honey&Haseena. Звукорежиссёр: Михаил Федосеев.
Субтитры: русские (на песни), английские, немецкие, китайские
Оригинальная аудиодорожка: хинди
Режиссер: Адитья Дхар / Aditya Dhar
В ролях: Вики Каушал, Пареш Раваль, Ями Гаутам, Мохит Рэйна, Кирти Кулхари, Раджит Капур, Иван Родригес, Сваруп Самрат, Рива Арора
Описание: В сентябре 2016 года вооруженные лица напали на индийскую военную базу в городке Ури, расположенном около линии границы, разделяющей индийский штат Джамму и Кашмир и самопровозглашенное государство Азад Кашмир под фактическим контролем Пакистана. В результате атаки погибло 19 и ранено 30 индийских солдат. Также было ликвидировано четверо нападавших. Всем казалось, что причастные к атаке смогут избежать возмездия. Мало кто мог предположить, что индийская армия вычислит виновных и спланирует уникальную в своём роде спецоперацию…

Сэмпл
Тип релиза: BDRemux 1080p
Контейнер: MKV
Видео: AVC, 1920x1080 (16:9), 24.000 fps, 16799 kbps (0.338 bit/pixel)
Аудио 1: AC-3, 48.0 kHz, 2 ch, 224 kb/s, CBR (Russian | Zee-TV)
Аудио 2: AC-3, 48.0 kHz, 6 ch, 448 kb/s, CBR (Russian | Honey&Haseena)
Аудио 3: DTS-HD MA, 48.0 kHz, 6 ch, 2 350 kb/s, VBR (DTS Core: 6.0 / 48 kHz / 1152 kbps / 16-bit) (Original | Hindi)
Формат субтитров: softsub (SRT)

MediaInfo

General
Unique ID : 103114641675525357973335076258194321089 (0x4D9328592DDB05850427D130AF8AEEC1)
Format : Matroska
Format version : Version 4 / Version 2
File size : 19.0 GiB
Duration : 2 h 16 min
Overall bit rate mode : Variable
Overall bit rate : 19.9 Mb/s
Encoded date : UTC 2021-03-28 09:34:01
Writing application : mkvmerge v55.0.0 ('Waiting For Space') 64-bit
Writing library : libebml v1.4.2 + libmatroska v1.6.4
Original source medium : Blu-ray
Video
ID : 1
Format : AVC
Format/Info : Advanced Video Codec
Format profile : High@L4.1
Format settings, CABAC : Yes
Format settings, ReFrames : 4 frames
Codec ID : V_MPEG4/ISO/AVC
Duration : 2 h 16 min
Bit rate mode : Variable
Bit rate : 16.8 Mb/s
Maximum bit rate : 35.0 Mb/s
Width : 1 920 pixels
Height : 1 080 pixels
Display aspect ratio : 16:9
Frame rate mode : Constant
Frame rate : 24.000 FPS
Standard : NTSC
Color space : YUV
Chroma subsampling : 4:2:0
Bit depth : 8 bits
Scan type : Progressive
Bits/(Pixel*Frame) : 0.338
Stream size : 16.0 GiB (84%)
Default : Yes
Forced : No
Color range : Limited
Color primaries : BT.709
Transfer characteristics : BT.709
Matrix coefficients : BT.709
Audio #1
ID : 2
Format : AC-3
Format/Info : Audio Coding 3
Format settings, Endianness : Big
Codec ID : A_AC3
Duration : 2 h 16 min
Bit rate mode : Constant
Bit rate : 224 kb/s
Channel(s) : 2 channels
Channel positions : Front: L R
Sampling rate : 48.0 kHz
Frame rate : 31.250 FPS (1536 spf)
Bit depth : 16 bits
Compression mode : Lossy
Stream size : 219 MiB (1%)
Title : Профессиональный (многоголосый, закадровый) - Zee-TV
Language : Russian
Service kind : Complete Main
Default : Yes
Forced : No
Audio #2
ID : 3
Format : AC-3
Format/Info : Audio Coding 3
Format settings, Endianness : Big
Codec ID : A_AC3
Duration : 2 h 16 min
Bit rate mode : Constant
Bit rate : 448 kb/s
Channel(s) : 6 channels
Channel positions : Front: L C R, Side: L R, LFE
Sampling rate : 48.0 kHz
Frame rate : 31.250 FPS (1536 spf)
Bit depth : 16 bits
Compression mode : Lossy
Stream size : 437 MiB (2%)
Title : Профессиональный (многоголосый, закадровый) - Honey&Haseena
Language : Russian
Service kind : Complete Main
Default : No
Forced : No
Audio #3
ID : 4
ID in the original source medium : 4353 (0x1101)
Format : DTS
Format/Info : Digital Theater Systems
Format profile : MA / Core
Mode : 16
Format settings, Endianness : Big
Codec ID : A_DTS
Duration : 2 h 16 min
Bit rate mode : Variable / Constant
Bit rate : 2 350 kb/s / 1 152 kb/s
Channel(s) : 6 channels
Channel positions : Front: L C R, Side: L R, LFE
Sampling rate : 48.0 kHz
Frame rate : 93.750 FPS (512 spf)
Bit depth : 16 bits
Compression mode : Lossless / Lossy
Stream size : 2.24 GiB (12%)
Language : Hindi
Default : No
Forced : No
Text #1
ID : 5
Format : UTF-8
Codec ID : S_TEXT/UTF8
Codec ID/Info : UTF-8 Plain Text
Duration : 2 h 14 min
Bit rate : 8 b/s
Count of elements : 127
Stream size : 8.16 KiB (0%)
Title : На песни
Language : Russian
Default : Yes
Forced : No
Text #2
ID : 6
Format : UTF-8
Codec ID : S_TEXT/UTF8
Codec ID/Info : UTF-8 Plain Text
Duration : 2 h 8 min
Bit rate : 41 b/s
Count of elements : 971
Stream size : 38.7 KiB (0%)
Language : English
Default : No
Forced : No
Text #3
ID : 7
Format : UTF-8
Codec ID : S_TEXT/UTF8
Codec ID/Info : UTF-8 Plain Text
Duration : 2 h 8 min
Bit rate : 44 b/s
Count of elements : 970
Stream size : 42.1 KiB (0%)
Language : German
Default : No
Forced : No
Text #4
ID : 8
ID in the original source medium : 4610 (0x1202)
Format : PGS
Muxing mode : zlib
Codec ID : S_HDMV/PGS
Codec ID/Info : Picture based subtitle format used on BDs/HD-DVDs
Duration : 2 h 14 min
Bit rate : 24.8 kb/s
Count of elements : 2815
Stream size : 23.9 MiB (0%)
Language : English
Default : No
Forced : No
Text #5
ID : 9
ID in the original source medium : 4608 (0x1200)
Format : PGS
Muxing mode : zlib
Codec ID : S_HDMV/PGS
Codec ID/Info : Picture based subtitle format used on BDs/HD-DVDs
Duration : 2 h 8 min
Bit rate : 2 935 b/s
Count of elements : 169
Stream size : 2.71 MiB (0%)
Language : German
Default : No
Forced : No
Text #6
ID : 10
ID in the original source medium : 4609 (0x1201)
Format : PGS
Muxing mode : zlib
Codec ID : S_HDMV/PGS
Codec ID/Info : Picture based subtitle format used on BDs/HD-DVDs
Duration : 2 h 8 min
Bit rate : 29.6 kb/s
Count of elements : 1533
Stream size : 27.3 MiB (0%)
Language : German
Default : No
Forced : No
Text #7
ID : 11
ID in the original source medium : 4611 (0x1203)
Format : PGS
Muxing mode : zlib
Codec ID : S_HDMV/PGS
Codec ID/Info : Picture based subtitle format used on BDs/HD-DVDs
Duration : 2 h 14 min
Bit rate : 22.5 kb/s
Count of elements : 2814
Stream size : 21.7 MiB (0%)
Language : Chinese
Default : No
Forced : No
Text #8
ID : 12
ID in the original source medium : 4612 (0x1204)
Format : PGS
Muxing mode : zlib
Codec ID : S_HDMV/PGS
Codec ID/Info : Picture based subtitle format used on BDs/HD-DVDs
Duration : 2 h 14 min
Bit rate : 24.4 kb/s
Count of elements : 2814
Stream size : 23.6 MiB (0%)
Language : Chinese
Default : No
Forced : No
Text #9
ID : 13
ID in the original source medium : 4613 (0x1205)
Format : PGS
Muxing mode : zlib
Codec ID : S_HDMV/PGS
Codec ID/Info : Picture based subtitle format used on BDs/HD-DVDs
Duration : 2 h 14 min
Bit rate : 22.5 kb/s
Count of elements : 2814
Stream size : 21.7 MiB (0%)
Language : Chinese
Default : No
Forced : No
Text #10
ID : 14
ID in the original source medium : 4614 (0x1206)
Format : PGS
Muxing mode : zlib
Codec ID : S_HDMV/PGS
Codec ID/Info : Picture based subtitle format used on BDs/HD-DVDs
Duration : 2 h 14 min
Bit rate : 24.4 kb/s
Count of elements : 2814
Stream size : 23.6 MiB (0%)
Language : Chinese
Default : No
Forced : No
Menu
00:00:00.000 : en:Глава 01
00:04:02.166 : en:Глава 02
00:16:15.000 : en:Глава 03
00:24:06.583 : en:Глава 04
00:37:45.625 : en:Глава 05
00:48:43.708 : en:Глава 06
01:01:14.458 : en:Глава 07
01:13:20.583 : en:Глава 08
01:20:00.041 : en:Глава 09
01:27:46.541 : en:Глава 10
01:42:20.333 : en:Глава 11
02:09:50.000 : en:Глава 12

Скриншоты

 GOLD TORRENT! DOWNLOAD TRAFFIC DOES NOT CONSIDER! 
Torrent: Registered [ 2021-04-03 10:44 ]   · 93526B97DA6454194B1AB858953C475ECD87ECDD

Download .torrent

Download

48 KB

Status: T temporary
Completed: 0 times
Size: 19 GB
Поделиться:
terms.php
[Profile] [PM]
Display posts:    
Reply to topic

Current time is: 01-Aug 16:27

All times are UTC + 3



You cannot post new topics in this forum
You cannot reply to topics in this forum
You cannot edit your posts in this forum
You cannot delete your posts in this forum
You cannot vote in polls in this forum
You cannot attach files in this forum
You can download files in this forum