Ничто не случается дважды [S02] (2020) HDTV 1080p от Generalfilm

Reply to topic
DL-List and Torrent activity [Update пиров]
Size:  21.23 GB   |    Registered:  1 month 18 days   |    Completed:  0 times
Seeders:  161  [  0 KB/s  ]   Leechers:  76  [  0 KB/s  ]   Show peers in full details
 
   
 
 
Author Message

admin ®

Gender: Male

Longevity: 3 years 7 months

Posts: 10934

Post 24-Mar-2021 19:22

[Quote]

Информация о фильме
Год выпуска: 2020
Жанр: мелодрама
Режиссер: Оксана Байрак
В ролях:
Екатерина Тышкевич (Катя Богданова / Маша Богданова), Максим Дрозд (Калинин), Антон Батырев (Вадим Огнев), Надежда Грановская (Раиса), Алла Масленникова (Лидия Николаевна), Ирина Ефремова (Ирина Сергеевна), Валентин Томусяк (Дмитрий Богданов), Владимир Гладкий (Побегайло), Олесь Кацион (Побегайло), Глеб Калюжный (Юра в юности), Антон Бухов (следователь), Татьяна Жевнова (Алла)-О фильме: Эта история начинается 20 лет назад. Небольшой военный посёлок на самой границе только на первый взгляд кажется тихим и мирным. Маленькая страна со своими правилами, где есть место страсти, любви, верности и измене. Перед героями стоят трудные решения и роковые встречи, которые приведут к испытаниям... или же к большой любви?
Страна: Украина
Студия: Украина Film.UA, Студия Байрак
Продолжительность: ~ 00:52:42
Файл
Кодек: h.264
Качество: HDTV 1080p
Видео: MPEG-4 AVC,1920x1080 (16:9), 7050 kbps, 25 fps, 0,136 bpp
Аудио: AC3, 2 ch, 192 Кбит/с
Язык: Русский
Субтитры: Украинские

MediaInfo

General
Unique ID : 190147570069268095626685454309417300795 (0x8F0D170401B6EF2DA80BA22C927C333B)
Complete name : E:Запись с твNichto ne sluchaetsya dvazhdy S02 2020 HDTV 1080p.R.G.GeneralfilmNichto ne sluchaetsya dvazhdy.s01.e01.2020.HDTV 1080p.by.White Smoke.R.G.Generalfilm.mkv
Format : Matroska
Format version : Version 4 / Version 2
File size : 2.66 GiB
Duration : 52 min
Overall bit rate mode : Constant
Overall bit rate : 7 217 kb/s
Movie name : Nichto ne sluchaetsya dvazhdy.s01.e01.2020.HDTV 1080p.by.White Smoke.R.G.Generalfilm.mkv
Encoded date : UTC 2020-03-31 09:31:48
Writing application : mkvmerge v6.8.0 ('Theme for Great Cities') 64bit built on Mar 2 2014 21:34:26
Writing library : libebml v1.3.0 + libmatroska v1.4.1
Cover : Yes
Attachments : cover.jpg
Video
ID : 1
Format : AVC
Format/Info : Advanced Video Codec
Format profile : High@L4.1
Format settings, CABAC : Yes
Format settings, ReFrames : 3 frames
Codec ID : V_MPEG4/ISO/AVC
Duration : 52 min
Bit rate mode : Constant
Bit rate : 7 051 kb/s
Width : 1 920 pixels
Height : 1 080 pixels
Display aspect ratio : 16:9
Frame rate mode : Constant
Frame rate : 25.000 FPS
Standard : PAL
Color space : YUV
Chroma subsampling : 4:2:0
Bit depth : 8 bits
Scan type : Progressive
Bits/(Pixel*Frame) : 0.136
Stream size : 2.53 GiB (95%)
Default : Yes
Forced : No
Color range : Limited
Color primaries : BT.709
Transfer characteristics : BT.709
Matrix coefficients : BT.709
Audio
ID : 2
Format : AC-3
Format/Info : Audio Coding 3
Mode extension : CM (complete main)
Format settings, Endianness : Big
Codec ID : A_AC3
Duration : 52 min
Bit rate mode : Constant
Bit rate : 192 kb/s
Channel(s) : 2 channels
Channel positions : Front: L R
Sampling rate : 48.0 kHz
Frame rate : 31.250 FPS (1536 spf)
Compression mode : Lossy
Stream size : 72.4 MiB (3%)
Default : Yes
Forced : No

Скриншоты

 GOLD TORRENT! DOWNLOAD TRAFFIC DOES NOT CONSIDER! 
Torrent: Registered [ 2021-03-24 19:22 ]   · 22C8229C72BC8F38E58B033458E62C0EE02C187D

Download .torrent

Download

55 KB

Status: checked
Completed: 0 times
Size: 21.23 GB
Поделиться:
terms.php
[Profile] [PM]
Display posts:    
Reply to topic

Current time is: 12-May 18:22

All times are UTC + 3



You cannot post new topics in this forum
You cannot reply to topics in this forum
You cannot edit your posts in this forum
You cannot delete your posts in this forum
You cannot vote in polls in this forum
You cannot attach files in this forum
You can download files in this forum