Дублёр (Евгений Абызов) [2012, комедия, BDRip-AVC]

Reply to topic
 
Author Message

admin ®

Gender: Male

Longevity: 3 years

Posts: 10017

Post 11-Oct-2017 16:03

[Quote]

Дублёр Жанр: комедия
Год выпуска: 2012
Продолжительность: 01:23:34
Режиссёр: Евгений Абызов
В ролях: Александр Ревва, Кристина Асмус, Ксения Буравская, Варвара Малкова, Александр Сазонов, Людмила Артемьева, Дмитрий Хрусталёв, Татьяна Орлова, Анна Назарова, Юлия Гришина, Михаил Крылов, Алексей Огурцов, Юлия Беретта, Лилия Шарыкина, Нино Кантария, Илья Костюков, Степан Юрпалов, Веста Буркот
Описание: Главный герой нашей истории - успешный актер, "звезда" шоу-бизнеса Игорь Успенский. Его жизнь - сплошные съемки, концерты, презентации, корпоративы, интервью и светские тусовки. Он вынужден «крутиться» день и ночь, у него нет выходных и праздников. А его очаровательная жена и прекрасная дочка видят его в лучшем случае поздно ночью, когда он приезжает домой, чтобы поспать хотя бы пару часов. Но все труды не проходят даром. Игорь очень популярен, и однажды его кандидатуру выдвигают на премию «Человек года». Теперь ему нужно еще больше времени, чтобы победить главного конкурента - певца Михаила Стасова, главные хиты которого свели с ума всех женщин России...
Доп. информация:

Качество видео: BDRip-AVC [исходник - Blu-Ray Remux 720p]
Формат видео: MKV
Видео: AVC H.264, 1280x582 (2,2:1), 24,000 fps, 3293 Кbps, 0.175 bit/pixel
Аудио: 48 kHz, AC3 Dolby Digital, 3/2 (L,C,R,l,r) + LFE ch, ~448.00 kbps avg

MediaInfo

Уникальный идентификатор : 187618483669247641601613901404599999642 (0x8D26016DD0F67BC9AD14BC84F3AFDC9A)
Полное имя : C:\Фильмы\Дублёр\Dubljor.2013.BDRip.720p.by_IVAN@190282.mkv
Формат : Matroska
Версия формата : Version 2
Размер файла : 2,18 Гбайт
Продолжительность : 1 ч. 23 м.
Общий поток : 3740 Кбит/сек
Название фильма : Дублёр
Дата кодирования : UTC 2013-02-03 08:14:23
Программа кодирования : mkvmerge v5.7.0 ('The Whirlwind') built on Jul 8 2012 20:08:51
Библиотека кодирования : libebml v1.2.3 + libmatroska v1.3.0
Идентификатор : 1
Формат : AVC
Формат/Информация : Advanced Video Codec
Профиль формата : High@L4.1
Параметр CABAC формата : Да
Параметр ReFrames формата : 10 кадров
Идентификатор кодека : V_MPEG4/ISO/AVC
Продолжительность : 1 ч. 23 м.
Битрейт : 3293 Кбит/сек
Ширина : 1280 пикселей
Высота : 582 пикселя
Соотношение сторон : 2,2:1
Режим частоты кадров : Постоянный
Частота кадров : 24,000 кадра/сек
Цветовое пространство : YUV
Субдискретизация насыщенности : 4:2:0
Битовая глубина : 8 бит
Тип развёртки : Прогрессивная
Бит/(Пиксели*Кадры) : 0.184
Размер потока : 1,88 Гбайт (86%)
Заголовок : Дублёр
Библиотека кодирования : x264 core 125 r2208 d9d2288
Настройки программы : cabac=1 / ref=10 / deblock=1:-2:-1 / analyse=0x3:0x133 / me=umh / subme=11 / psy=1 / psy_rd=1.05:0.00 / mixed_ref=1 / me_range=32 / chroma_me=1 / trellis=2 / 8x8dct=1 / cqm=0 / deadzone=21,11 / fast_pskip=0 / chroma_qp_offset=-2 / threads=6 / lookahead_threads=1 / sliced_threads=0 / nr=0 / decimate=1 / interlaced=0 / bluray_compat=0 / constrained_intra=0 / bframes=11 / b_pyramid=2 / b_adapt=2 / b_bias=0 / direct=3 / weightb=1 / open_gop=0 / weightp=2 / keyint=240 / keyint_min=23 / scenecut=40 / intra_refresh=0 / rc_lookahead=150 / rc=2pass / mbtree=1 / bitrate=3293 / ratetol=1.0 / qcomp=0.70 / qpmin=0 / qpmax=69 / qpstep=4 / cplxblur=20.0 / qblur=0.5 / vbv_maxrate=50000 / vbv_bufsize=62500 / nal_hrd=none / ip_ratio=1.35 / aq=1:0.70
Язык : Russian
Default : Да
Forced : Нет
Идентификатор : 2
Формат : AC-3
Формат/Информация : Audio Coding 3
Расширение режима : CM (complete main)
Параметр Endianness формата : Big
Идентификатор кодека : A_AC3
Продолжительность : 1 ч. 23 м.
Вид битрейта : Постоянный
Битрейт : 448 Кбит/сек
Каналы : 6 каналов
Расположение каналов : Front: L C R, Side: L R, LFE
Частота : 48,0 КГц
Битовая глубина : 16 бит
Метод сжатия : С потерями
Размер потока : 268 Мбайт (12%)
Заголовок : DD 5.1 @ 448 kbps
Язык : Russian
Default : Да
Forced : Да

Скриншот c названием фильма

Скриншоты

[Profile] [PM]
Display posts:    
Reply to topic

Current time is: 28-Sep 07:50

All times are UTC + 3



You cannot post new topics in this forum
You cannot reply to topics in this forum
You cannot edit your posts in this forum
You cannot delete your posts in this forum
You cannot vote in polls in this forum
You cannot attach files in this forum
You can download files in this forum