Стендапер по жизни / Standing Up, Falling Down (Мэтт Рэтнер / Matt Ratner) [2019, США, драма, комедия, BDRip] Dub (iTunes)

Reply to topic
DL-List and Torrent activity
Size:  1.46 GB   |    Registered:  5 days   |    Completed:  0 times

Seeder not seen: Never

 
   
 
 
Author Message

admin ®

Gender: Male

Longevity: 3 years 2 months

Posts: 10109

Post 22-Nov-2020 05:50

[Quote]

Стендапер по жизни / Standing Up, Falling Down
Страна: США
Жанр: драма, комедия
Год выпуска: 2019
Продолжительность: 01:31:17-Перевод: Профессиональный (дублированный) | iTunes
Субтитры: нет
Оригинальная аудиодорожка: нет-Режиссер:
Мэтт Рэтнер / Matt Ratner-В ролях:
Билли Кристал, Бен Шварц, Элоиза Мамфорд, Грэйс Гаммер, Нэйт Корддри, Джилл Хеннесси, Кэйтлин МакГи, Дэвид Кастанеда, Леонард Оузтс, Джон Белманн-Описание: Не сумев добиться успеха в Лос-Анджелесе, немолодой комик вынужден вернуться домой на Лонг-Айленд. По воле случая он знакомится с обаятельным, но пьющим дерматологом, тоже переживающим жизненный кризис. Найдя друг в друге отдушину, они начинают вместе карабкаться наверх…- -Качество видео: BDRip | Standing Up, Falling Down 2019 1080p Blu-ray Remux AVC DTS-HD MA 5.1 - KRaLiMaRKo
Формат видео: AVI
Видео: 720x384 (1.88:1), 23.976 fps, XviD build 73 ~1896 kbps avg, 0.29 bit/pixel
Аудио: 48 kHz, AC3 Dolby Digital, 3/2 (L,C,R,l,r) + LFE ch, ~384 kbps-Сэмпл-

MediaInfo


Формат                                   : AVI
Формат/Информация                        : Audio Video Interleave
Размер файла                             : 1,46 Гбайт
Продолжительность                        : 1 ч. 31 м.
Общий поток                              : 2 290 Кбит/сек
Название фильма                          : Стендапер по жизни_2019_BDRip
Программа кодирования                    : VirtualDubMod 1.5.10.3 | www.virtualdub-fr.org || (build 2550/release)
Авторское право                          : порошков
Видео
Идентификатор                            : 0
Формат                                   : MPEG-4 Visual
Профиль формата                          : Advanced Simple@L5
Настройки формата                        : BVOP1 / Custom Matrix
Параметр BVOP формата                    : 1
Параметр QPel формата                    : Нет
Параметр GMC формата                     : Без точки перехода
Параметр матрицы формата                 : Выборочная
Идентификатор кодека                     : XVID
Идентификатор кодека/Подсказка           : XviD
Продолжительность                        : 1 ч. 31 м.
Битрейт                                  : 1 897 Кбит/сек
Ширина                                   : 720 пикселей
Высота                                   : 384 пикселя
Соотношение сторон                       : 1,85:1
Частота кадров                           : 23,976 (24000/1001) кадра/сек
Цветовое пространство                    : YUV
Субдискретизация насыщенности            : 4:2:0
Битовая глубина                          : 8 бит
Тип развёртки                            : Прогрессивная
Метод сжатия                             : С потерями
Бит/(Пиксели*Кадры)                      : 0.286
Размер потока                            : 1,21 Гбайт (83%)
Библиотека кодирования                   : XviD 73
Аудио
Идентификатор                            : 1
Формат                                   : AC-3
Формат/Информация                        : Audio Coding 3
Коммерческое название                    : Dolby Digital
Идентификатор кодека                     : 2000
Продолжительность                        : 1 ч. 31 м.
Вид битрейта                             : Постоянный
Битрейт                                  : 384 Кбит/сек
Каналы                                   : 6 каналов
Channel layout                           : L R C LFE Ls Rs
Частота                                  : 48,0 КГц
Частота кадров                           : 31,250 кадров/сек (1536 SPF)
Метод сжатия                             : С потерями
Размер потока                            : 251 Мбайт (17%)
Выравнивание                             : Разделение по промежуткам
Продолжительность промежутка             : 42  мс. (1,00 видеокадр)
Время предзагрузки промежутка            : 500  мс.
Service kind                             : Complete Main

Скриншоты


 GOLD TORRENT! DOWNLOAD TRAFFIC DOES NOT CONSIDER! 
Torrent: Registered [ 2020-11-22 05:50 ]   · EA48F22CF9F0E163FAEBC24CA9CA7A7924B1785E

Download .torrent

Download

15 KB

Status: checked
Completed: 0 times
Size: 1.46 GB
Поделиться:
terms.php
[Profile] [PM]
Display posts:    
Reply to topic

Current time is: 27-Nov 08:33

All times are UTC + 3



You cannot post new topics in this forum
You cannot reply to topics in this forum
You cannot edit your posts in this forum
You cannot delete your posts in this forum
You cannot vote in polls in this forum
You cannot attach files in this forum
You can download files in this forum