21 и больше / 21 & Over (Джон Лукас / Jon Lucas, Скотт Мур / Scott Moore) [2013, США, Комедия, BDRip-AVC] Dub

Reply to topic
DL-List and Torrent activity
Size:  2.19 GB   |    Registered:  3 months 23 days   |    Completed:  0 times

Seeder not seen: Never

 
   
 
 
Author Message

admin ®

Gender: Male

Longevity: 3 years

Posts: 10018

Post 11-Oct-2017 15:18

[Quote]

21 и больше / 21 & Over«Наконец-то» Страна: США
Жанр: Комедия
Год выпуска: 2013
Продолжительность: 01:33:05
Перевод: Профессиональный (дублированный)
Субтитры: нет
Оригинальная аудиодорожка: нет
Режиссер: Джон Лукас / Jon Lucas, Скотт Мур / Scott Moore
В ролях: Майлз Теллер, Скайлар Эстин, Джастин Чон, Сара Райт, Джонатан Кельтц, Франсуа Чау, Расселл Ходжкинсон, Дэниэл Буко, Расселл Меркадо, Джози Лорен
Описание: Двое друзей подбивают третьего отметить его 21-ый день рождения прямо накануне важного экзамена в медицинский колледж. Никто не замечает, как одна кружка пива превращается в море выпивки, а вечеринка - в бурное и незабываемое приключение с музыкой и девчонками. И где же они окажутся утром?
Доп. информация:
:
Качество видео: BDRip-AVC (Исходник:21 и больше / 21 & Over (2013) 1080p BD-Remux)
Формат видео: MKV
Видео: 1280x720 (16:9), 23.976 fps,x264@L4.1 ~2916 kbps avg, 0.132 bit/pixel
Аудио: 48 kHz, AC3 Dolby Digital, 3/2 (L C R, Side: L R, LFE ch, ~448 kbps avg

MediaInfo

Уникальный идентификатор : 233864344647659527073202616884499611256 (0xAFF0A269E1FB630098E5064573FC7E78)
Полное имя : C:\Фильмы\21 и больше\21 & Over.2013.x264.BDRip-AVC..mkv
Формат : Matroska
Версия формата : Version 4 / Version 2
Размер файла : 2,19 Гбайт
Продолжительность : 1 ч. 33 м.
Общий поток : 3365 Кбит/сек
Дата кодирования : UTC 2013-05-17 15:01:49
Программа кодирования : mkvmerge v6.1.0 ('Old Devil') built on Mar 2 2013 14:32:37
Библиотека кодирования : libebml v1.3.0 + libmatroska v1.4.0
Идентификатор : 2
Формат : AVC
Формат/Информация : Advanced Video Codec
Профиль формата : High@L3.1
Параметр CABAC формата : Да
Параметр ReFrames формата : 4 кадра
Идентификатор кодека : V_MPEG4/ISO/AVC
Продолжительность : 1 ч. 33 м.
Битрейт : 2916 Кбит/сек
Ширина : 1280 пикселей
Высота : 720 пикселей
Соотношение сторон : 16:9
Режим частоты кадров : Постоянный
Частота кадров : 23,976 кадра/сек
Цветовое пространство : YUV
Субдискретизация насыщенности : 4:2:0
Битовая глубина : 8 бит
Тип развёртки : Прогрессивная
Бит/(Пиксели*Кадры) : 0.132
Размер потока : 1,85 Гбайт (85%)
Библиотека кодирования : x264 core 130 r2273 b3065e6
Настройки программы : cabac=1 / ref=3 / deblock=1:0:0 / analyse=0x3:0x133 / me=hex / subme=7 / psy=1 / psy_rd=1.00:0.00 / mixed_ref=1 / me_range=16 / chroma_me=1 / trellis=1 / 8x8dct=1 / cqm=0 / deadzone=21,11 / fast_pskip=1 / chroma_qp_offset=-2 / threads=6 / lookahead_threads=1 / sliced_threads=0 / nr=0 / decimate=1 / interlaced=0 / bluray_compat=0 / constrained_intra=0 / bframes=3 / b_pyramid=2 / b_adapt=1 / b_bias=0 / direct=1 / weightb=1 / open_gop=0 / weightp=2 / keyint=240 / keyint_min=23 / scenecut=40 / intra_refresh=0 / rc_lookahead=40 / rc=2pass / mbtree=1 / bitrate=2916 / ratetol=1.0 / qcomp=0.60 / qpmin=0 / qpmax=69 / qpstep=4 / cplxblur=20.0 / qblur=0.5 / ip_ratio=1.40 / aq=1:1.00
Язык : English
Default : Да
Forced : Нет
Идентификатор : 1
Формат : AC-3
Формат/Информация : Audio Coding 3
Расширение режима : CM (complete main)
Параметр Endianness формата : Big
Идентификатор кодека : A_AC3
Продолжительность : 1 ч. 33 м.
Вид битрейта : Постоянный
Битрейт : 448 Кбит/сек
Каналы : 6 каналов
Расположение каналов : Front: L C R, Side: L R, LFE
Частота : 48,0 КГц
Битовая глубина : 16 бит
Метод сжатия : С потерями
Размер потока : 298 Мбайт (13%)
Default : Да
Forced : Нет

Скриншот c названием фильма

Скриншоты

 GOLD TORRENT! DOWNLOAD TRAFFIC DOES NOT CONSIDER! 
Torrent: Registered [ 2020-06-06 06:15 ]   · F558AB91AD0ABEBF6700181FF22901EF0E7A491B

Download .torrent

Download

11 KB

Status: checked
Completed: 0 times
Size: 2.19 GB
Поделиться:
terms.php
[Profile] [PM]
Display posts:    
Reply to topic

Current time is: 29-Sep 10:40

All times are UTC + 3



You cannot post new topics in this forum
You cannot reply to topics in this forum
You cannot edit your posts in this forum
You cannot delete your posts in this forum
You cannot vote in polls in this forum
You cannot attach files in this forum
You can download files in this forum