Остров везения (Кирил Козлов) [2013, Комедия, BDRip]

Reply to topic
 
Author Message

admin ®

Gender: Male

Longevity: 3 years

Posts: 10017

Post 11-Oct-2017 15:13

[Quote]

Остров везения
Жанр: Комедия
Год выпуска: 2013
Продолжительность: 01:22:25
Режиссёр: Кирил Козлов
В ролях: Роман Юнусов, Светлана Ходченкова, Агния Дитковските, Анна Хилькевич, Алексей Чумаков, Татьяна Орлова, Даша Астафьева, Юлия Гришина, Александр Сазонов, Мария Кравцова
Описание: Тихоокеанский лайнер. Полуобнаженные красотки, участвующие в конкурсе красоты. Шампанское и голубой океан… О таком бывшая звезда телевидения, а ныне ведущий дешевых свадеб, даже и не мечтал. Однако круиз мечты неожиданно прервется цепью невероятных событий. И наш герой окажется на необитаемом острове, в окружении трех финалисток конкурса — принципиальной стервы, паникерши и классической блондинки.
Что делать? Ведь лишившись возможности выиграть вожделенную корону, девушки его наверняка порвут на кусочки…. Значит надо продолжать конкурс! Сделав вид, что так задумано, Роман начинает представление. Он убеждает девиц, что на острове понатыканы скрытые камеры и микрофоны, шоу выводится в эфир одного из главных каналов, и вся страна теперь следит за финалом конкурса красоты! И всего то нужно — пройти пару испытаний под прицелом вон того ближайшего кокоса… то есть камеры. И пока девушки включились в соревнования, наш герой ищет путь спасения с острова…
Доп. информация:

Качество видео: BDRip [исходник - Blu-Ray Remux 720p]
Формат видео: AVI
Видео: 720x304 (2.35:1), 24.000 fps, 2067 Kbps (0.393 bit/pixel)
Аудио: 48 kHz, AC3 Dolby Digital, 3/2 (L,C,R,l,r) + LFE ch, 448 kbps

MediaInfo

Complete name : F:\Фильмы\Остров везения\Ostrov.vezeniya.2013.RUS.BDRip.XviD.AC3.-HQCLUB.avi
Format : AVI
Format/Info : Audio Video Interleave
File size : 1.45 GiB
Duration : 1h 22mn
Overall bit rate : 2 525 Kbps
Movie name : Остров везения (2013) BDRip
Director : yaroslaigor
Genre : комедия
Writing application : VirtualDubMod 1.5.10.2 (build 2542/release)
Comment : 19.01.2014
Video
ID : 0
Format : MPEG-4 Visual
Format profile : Advanced Simple@L5
Format settings, BVOP : 1
Format settings, QPel : No
Format settings, GMC : No warppoints
Format settings, Matrix : Custom
Codec ID : XVID
Codec ID/Hint : XviD
Duration : 1h 22mn
Bit rate : 2 067 Kbps
Width : 720 pixels
Height : 304 pixels
Display aspect ratio : 2.35:1
Frame rate : 24.000 fps
Color space : YUV
Chroma subsampling : 4:2:0
Bit depth : 8 bits
Scan type : Progressive
Compression mode : Lossy
Bits/(Pixel*Frame) : 0.393
Stream size : 1.19 GiB (82%)
Writing library : XviD 65
Audio
ID : 1
Format : AC-3
Format/Info : Audio Coding 3
Mode extension : CM (complete main)
Format settings, Endianness : Big
Codec ID : 2000
Duration : 1h 22mn
Bit rate mode : Constant
Bit rate : 448 Kbps
Channel(s) : 6 channels
Channel positions : Front: L C R, Side: L R, LFE
Sampling rate : 48.0 KHz
Bit depth : 16 bits
Compression mode : Lossy
Stream size : 264 MiB (18%)
Alignment : Split accross interleaves
Interleave, duration : 42 ms (1.00 video frame)
Interleave, preload duration : 500 ms

Скриншот c названием фильма

Скриншоты

[Profile] [PM]
Display posts:    
Reply to topic

Current time is: 28-Sep 09:36

All times are UTC + 3



You cannot post new topics in this forum
You cannot reply to topics in this forum
You cannot edit your posts in this forum
You cannot delete your posts in this forum
You cannot vote in polls in this forum
You cannot attach files in this forum
You can download files in this forum