Рука на миллион / Million Dollar Arm (Крэйг Гиллеспи / Craig Gillespie) [2014, США, Драма, биография, спорт, BDRip-AVC] Dub + Sub Rus,Eng + Original Eng

Reply to topic
DL-List and Torrent activity
Size:  2.94 GB   |    Registered:  3 years 1 month   |    Completed:  0 times

Seeder not seen: Never

 
   
 
 
Author Message

admin ®

Gender: Male

Longevity: 3 years 2 months

Posts: 10115

Post 11-Oct-2017 03:45

[Quote]

Рука на миллионMillion Dollar Arm«Sometimes to win, you have to change the game»
Страна: США
Жанр: Драма, биография, спорт
Год выпуска: 2014
Продолжительность: 01:58:30
Перевод: Профессиональный (дублированный) [Лицензия BD CEE]
Субтитры: русские,английские
Оригинальная аудиодорожка: английский
Режиссер: Крэйг Гиллеспи / Craig Gillespie
В ролях: Джон Хэмм, Питобаш Трипати, Сурадж Шарма, Мадхур Миттал, Аасиф Мандви, Даршан Джаривала, Лэйк Белл, Алан Аркин, Билл Пэкстон, Грегори Алан Уильямс
Описание: Спортивный агент использует нетрадиционные способы найма, чтобы переманить талантливых азиатских игроков в крикет в Высшую лигу бейсбола.
Доп. информация:
Релиз группы:
Качество видео: BDRip-AVC | Рука на миллион / Million Dollar Arm (2014) 1080p Blurey|
Исходник: Рука на миллион / Million Dollar Arm Blurey 1080p
Формат видео: MKV
Видео: 1046x438 (2,35:1), 23.976 fps, 2478 Кbps, 0.226 bit/pixel
Аудио: 48 kHz, AC3 Dolby Digital, 3/2 (L,C,R,l,r) + LFE ch, 448.00 kbps | DUB
Аудио 2: 48 kHz, AC3 Dolby Digital, 3/2 (L,C,R,l,r) + LFE ch, 448.00 kbps | ENG
Формат субтитров: softsub (SRT)
Доп. информация о субтитрах: отключаемые

MediaInfo

General
Unique ID : 175265120213489210851291841573061359401 (0x83DAD5962A1E09BAB3A55B90EEAF7729)
Complete name : E:\Мои рипы\Рука на миллион\Рука на миллион by_IVAN@190282.mkv
Format : Matroska
Format version : Version 4 / Version 2
File size : 2.94 GiB
Duration : 2h 4mn
Overall bit rate : 3 374 Kbps
Encoded date : UTC 2014-09-25 22:17:35
Writing application : mkvmerge v7.0.0 ('Where We Going') 64bit built on Jun 9 2014 15:16:27
Writing library : libebml v1.3.0 + libmatroska v1.4.1
DURATION : 01:54:21.395000000
NUMBER_OF_FRAMES : 1750
NUMBER_OF_BYTES : 59842
_STATISTICS_WRITING_APP : mkvmerge v7.0.0 ('Where We Going') 64bit built on Jun 9 2014 15:16:27
_STATISTICS_WRITING_DATE_UTC : 2014-09-25 22:17:35
_STATISTICS_TAGS : BPS DURATION NUMBER_OF_FRAMES NUMBER_OF_BYTES
Video
ID : 1
Format : AVC
Format/Info : Advanced Video Codec
Format profile : High@L4.1
Format settings, CABAC : Yes
Format settings, ReFrames : 13 frames
Codec ID : V_MPEG4/ISO/AVC
Duration : 2h 4mn
Bit rate : 2 478 Kbps
Width : 1 046 pixels
Height : 438 pixels
Display aspect ratio : 2.35:1
Original display aspect ratio : 2.35:1
Frame rate mode : Constant
Frame rate : 23.976 fps
Color space : YUV
Chroma subsampling : 4:2:0
Bit depth : 8 bits
Scan type : Progressive
Bits/(Pixel*Frame) : 0.226
Stream size : 2.10 GiB (71%)
Writing library : x264 core 142 r2479kMod dd79a61
Encoding settings : cabac=1 / ref=13 / deblock=1:-3:-2 / analyse=0x3:0x113 / me=umh / subme=11 / psy=1 / fade_compensate=0.00 / psy_rd=1.00:0.15 / mixed_ref=1 / me_range=48 / chroma_me=1 / trellis=2 / 8x8dct=1 / cqm=0 / deadzone=21,11 / fast_pskip=0 / chroma_qp_offset=0 / threads=6 / lookahead_threads=6 / sliced_threads=0 / slices=10 / nr=0 / decimate=1 / interlaced=0 / bluray_compat=0 / constrained_intra=0 / fgo=0 / bframes=16 / b_pyramid=2 / b_adapt=2 / b_bias=0 / direct=3 / weightb=1 / open_gop=1 / weightp=2 / keyint=240 / keyint_min=23 / scenecut=40 / intra_refresh=0 / rc_lookahead=40 / rc=2pass / mbtree=0 / bitrate=2478 / ratetol=1.0 / qcomp=0.60 / qpmin=0 / qpmax=69 / qpstep=4 / cplxblur=20.0 / qblur=0.5 / vbv_maxrate=50000 / vbv_bufsize=62500 / nal_hrd=none / filler=0 / ip_ratio=1.40 / pb_ratio=1.30 / aq=1:1.00
Default : Yes
Forced : No
Color primaries : BT.709
Transfer characteristics : BT.709
Matrix coefficients : BT.709
Audio #1
ID : 2
Format : AC-3
Format/Info : Audio Coding 3
Mode extension : CM (complete main)
Format settings, Endianness : Big
Codec ID : A_AC3
Duration : 2h 4mn
Bit rate mode : Constant
Bit rate : 448 Kbps
Channel(s) : 6 channels
Channel positions : Front: L C R, Side: L R, LFE
Sampling rate : 48.0 KHz
Bit depth : 16 bits
Compression mode : Lossy
Stream size : 400 MiB (13%)
Default : Yes
Forced : No
Audio #2
ID : 3
Format : AC-3
Format/Info : Audio Coding 3
Mode extension : CM (complete main)
Format settings, Endianness : Big
Codec ID : A_AC3
Duration : 2h 4mn
Bit rate mode : Constant
Bit rate : 448 Kbps
Channel(s) : 6 channels
Channel positions : Front: L C R, Side: L R, LFE
Sampling rate : 48.0 KHz
Bit depth : 16 bits
Compression mode : Lossy
Stream size : 400 MiB (13%)
Default : No
Forced : No
Text #1
ID : 4
Format : UTF-8
Codec ID : S_TEXT/UTF8
Codec ID/Info : UTF-8 Plain Text
Default : Yes
Forced : No
Text #2
ID : 5
Format : UTF-8
Codec ID : S_TEXT/UTF8
Codec ID/Info : UTF-8 Plain Text
Default : No
Forced : No

x264 log

VIDEO ENCODING
x264 [info]: frame I:1740 Avg QP:15.37 size: 80818
x264 [info]: frame P:40777 Avg QP:18.10 size: 24994
x264 [info]: frame B:137088 Avg QP:19.40 size: 8469
x264 [info]: consecutive B-frames: 3.2% 4.5% 9.2% 18.1% 18.1% 31.2% 5.9% 1.5% 2.0% 1.1% 1.0% 0.6% 1.0% 1.1% 0.5% 0.1% 0.9%
x264 [info]: kb/s:2478.47
x264 [total]: encoded 179605 frames, 3.77 fps, 2478.47 kb/s, duration 13:14:42.98

Скриншот c названием фильма

Скриншоты

Убедительная просьба пожалуйста кто скачал не бросайте раздачу!!!
 GOLD TORRENT! DOWNLOAD TRAFFIC DOES NOT CONSIDER! 
Torrent: Registered [ 2017-10-11 03:45 ]   · 4F9ADABA303864C4305844266C9BD8DA2A9BF806

Download .torrent

Download

15 KB

Status: checked
Completed: 0 times
Size: 2.94 GB
Поделиться:
terms.php
[Profile] [PM]
Display posts:    
Reply to topic

Current time is: 01-Dec 02:16

All times are UTC + 3



You cannot post new topics in this forum
You cannot reply to topics in this forum
You cannot edit your posts in this forum
You cannot delete your posts in this forum
You cannot vote in polls in this forum
You cannot attach files in this forum
You can download files in this forum