Артемис Фаул / Artemis Fowl (Кеннет Брана / Kenneth Branagh) [2020, США, фантастика, фэнтези, приключения, семейный, WEB-DLRip] MVO (HDRezka Studio)

Reply to topic
DL-List and Torrent activity
Size:  1.46 GB   |    Registered:  11 days   |    Completed:  0 times

Seeder not seen: Never

 
   
 
 
Author Message

admin ®

Gender: Male

Longevity: 2 years 9 months

Posts: 10121

Post 29-Jun-2020 01:23

[Quote]

Артемис Фаул / Artemis Fowl- Год выхода: 2020
Страна: США
Жанр: фантастика, фэнтези, приключения, семейный
Продолжительность: 01:34:20
Перевод: Любительский (многоголосый закадровый) HDRezka Studio
Субтитры: Русские (форсированные) (внешние *.srt)-Режиссер:
Кеннет Брана / Kenneth Branagh-В ролях:
Майкл Раус, Колин Фаррелл, Джош Гад, Джуди Денч, Рэйчил Офори, Джерард Хоран, Миранда Рэйсон, Нонсо Анози, Фердия Шоу, Эдриан Скарборо, Фердия Шоу, Никеш Пател, Симона Кирби-О фильме:
Укрытый от посторонних глаз, глубоко под поверхностью земной коры таится целый мир, населенный гномами, эльфами, пикси, лепреконами, брауни и другими волшебными существами. Они спрятались от людей и создали свою собственную весьма развитую цивилизацию. Их тайна так и оставалась бы нераскрытой, если бы не юный Артемис Фаул, прирожденный мошенник и единственный наследник древнего рода криминальных гениев. Он сумел не только найти доказательства существования подземного мира, но и придумал дерзкий план - ограбить его обитателей.-Релиз групп | | IMDB | КиноПоиск | Сэмпл |-Качество: WEB-DLRip
Формат: AVI
Видео: 720x304 (2.37:1), 23.976 fps, XviD build 67 ~1751 kbps avg, 0.33 bit/pixel
Аудио: 48 kHz, AC3 Dolby Digital, 3/2 (L,C,R,l,r) + LFE ch, ~448.00 kbps avg
-

Скриншоты

-

MediaInfo

Общее
Полное имя                               : D:\Artemis_Fowl_2020_WEB-DLRip_MVO_by_Dalemake.avi
Формат                                   : AVI
Формат/Информация                        : Audio Video Interleave
Размер файла                             : 1,46 Гбайт
Продолжительность                        : 1 ч. 34 м.
Общий поток                              : 2209 Кбит/сек
Программа кодирования                    : VirtualDubMod 1.5.10.3 | www.virtualdub-fr.org || (build 2550/release)
Библиотека кодирования                   : VirtualDubMod build 2550/release
Видео
Идентификатор                            : 0
Формат                                   : MPEG-4 Visual
Профиль формата                          : Advanced Simple@L5
Настройки формата                        : BVOP1 / Custom Matrix
Параметр BVOP формата                    : 1
Параметр QPel формата                    : Нет
Параметр GMC формата                     : Без точки перехода
Параметр матрицы формата                 : Выборочная
Идентификатор кодека                     : XVID
Идентификатор кодека/Подсказка           : XviD
Продолжительность                        : 1 ч. 34 м.
Битрейт                                  : 1752 Кбит/сек
Ширина                                   : 720 пикселей
Высота                                   : 304 пикселя
Соотношение сторон                       : 2,35:1
Частота кадров                           : 23,976 (24000/1001) кадра/сек
Цветовое пространство                    : YUV
Субдискретизация насыщенности            : 4:2:0
Битовая глубина                          : 8 бит
Тип развёртки                            : Прогрессивная
Метод сжатия                             : С потерями
Бит/(Пиксели*Кадры)                      : 0.334
Размер потока                            : 1,15 Гбайт (79%)
Библиотека кодирования                   : XviD 67
Аудио
Идентификатор                            : 1
Формат                                   : AC-3
Формат/Информация                        : Audio Coding 3
Коммерческое название                    : Dolby Digital
Идентификатор кодека                     : 2000
Продолжительность                        : 1 ч. 34 м.
Вид битрейта                             : Постоянный
Битрейт                                  : 448 Кбит/сек
Каналы                                   : 6 каналов
ChannelLayout                            : L R C LFE Ls Rs
Частота                                  : 48,0 КГц
Частота кадров                           : 31,250 кадров/сек (1536 SPF)
Битовая глубина                          : 16 бит
Метод сжатия                             : С потерями
Размер потока                            : 302 Мбайт (20%)
Выравнивание                             : Разделение по промежуткам
Продолжительность промежутка             : 42  мс. (1,00 видеокадр)
Время предзагрузки промежутка            : 500  мс.
ServiceKind/String                       : Complete Main
-
 GOLD TORRENT! DOWNLOAD TRAFFIC DOES NOT CONSIDER! 
Torrent: Registered [ 2020-06-29 01:23 ]   · A478CAFFB2F51054068C6AA5E66B3E5633A96F6F

Download .torrent

Download

15 KB

Status: checked
Completed: 0 times
Size: 1.46 GB
Поделиться:
terms.php
[Profile] [PM]
Display posts:    
Reply to topic

Current time is: 10-Jul 19:23

All times are UTC + 3



You cannot post new topics in this forum
You cannot reply to topics in this forum
You cannot edit your posts in this forum
You cannot delete your posts in this forum
You cannot vote in polls in this forum
You cannot attach files in this forum
You can download files in this forum