Андроид / Android / App (Бобо Боерманс / Bobby Boermans) [2013, Нидерланды, Триллер, BDRip-AVC] Dub

Reply to topic
DL-List and Torrent activity
Size:  1.46 GB   |    Registered:  5 months 19 days   |    Completed:  0 times

Seeder not seen: Never

 
   
 
 
Author Message

admin ®

Gender: Male

Longevity: 3 years 1 month

Posts: 10103

Post 11-Oct-2017 03:21

[Quote]

АндроидAndroid / App«Не отключайте мобильник во время сеанса»
Страна: Нидерланды
Жанр: Триллер
Год выпуска: 2013
Продолжительность: 01:15:34
Перевод: Профессиональный (дублированный) [Лицензия]
Субтитры: нет
Оригинальная аудиодорожка: нет
Режиссер: Бобо Боерманс / Bobby Boermans
В ролях: Ханна Хекстра, Исис Каболе, Роберт де Хуг, Алекс Хендрикс, Маттис ван де Санде Бакхуйзен, Патрик Мартенс, Гиги Равелли, Харри ван Рейтховен, Лиза Сипс, Ерун Шпиценбергер
Описание: Симпатичная студентка Анна просыпается после вечеринки и обнаруживает на своем смартфоне загадочное приложение «Айрис»… Активируя приложение, Анна запускает головокружительную и трагическую череду событий в жизни своих друзей и знакомых. Кто за этим стоит? …
Доп. информация:

Качество видео: BDRip-AVC |Андроид / Android / App (2013) 1080p BD-Remux|
Формат видео: MKV
Видео: 1056 x 440 (2:40:1) at 23.976 fps AVC at 2200 Кбит/сек
Аудио: AC3 Dolby Digital; 448 kbps; 6 Ch; 48 kHz

MediaInfo

General
Unique ID : 186717435616130651815237506184934585137 (0x8C7878547DB1757B9974CBA3B337F331)
Complete name : F:\Фильмы\Андроид\Android.2013.BD..mkv
Format : Matroska
Format version : Version 2
File size : 1.46 GiB
Duration : 1h 18mn
Overall bit rate : 2 647 Kbps
Encoded date : UTC 2013-12-28 02:36:35
Writing application : mkvmerge v6.1.0 ('Old Devil') built on Mar 4 2013 09:10:42
Writing library : libebml v1.3.0 + libmatroska v1.4.0
Video
ID : 1
Format : AVC
Format/Info : Advanced Video Codec
Format profile : High@L3.1
Format settings, CABAC : Yes
Format settings, ReFrames : 8 frames
Codec ID : V_MPEG4/ISO/AVC
Duration : 1h 18mn
Bit rate : 2 200 Kbps
Width : 1 056 pixels
Height : 440 pixels
Display aspect ratio : 2.40:1
Frame rate mode : Constant
Frame rate : 24.000 fps
Color space : YUV
Chroma subsampling : 4:2:0
Bit depth : 8 bits
Scan type : Progressive
Bits/(Pixel*Frame) : 0.197
Stream size : 1.18 GiB (81%)
Writing library : x264 core 130 r2273 b3065e6
Encoding settings : cabac=1 / ref=8 / deblock=1:-1:-1 / analyse=0x3:0x133 / me=umh / subme=7 / psy=1 / psy_rd=1.00:0.10 / mixed_ref=1 / me_range=16 / chroma_me=1 / trellis=2 / 8x8dct=1 / cqm=0 / deadzone=21,11 / fast_pskip=0 / chroma_qp_offset=-3 / threads=6 / lookahead_threads=1 / sliced_threads=0 / nr=0 / decimate=1 / interlaced=0 / bluray_compat=0 / constrained_intra=0 / bframes=3 / b_pyramid=2 / b_adapt=2 / b_bias=0 / direct=3 / weightb=1 / open_gop=0 / weightp=2 / keyint=250 / keyint_min=24 / scenecut=40 / intra_refresh=0 / rc_lookahead=50 / rc=2pass / mbtree=1 / bitrate=2200 / ratetol=1.0 / qcomp=0.60 / qpmin=0 / qpmax=69 / qpstep=4 / cplxblur=20.0 / qblur=0.5 / ip_ratio=1.40 / aq=1:1.00
Default : Yes
Forced : No
Audio
ID : 2
Format : AC-3
Format/Info : Audio Coding 3
Mode extension : CM (complete main)
Format settings, Endianness : Big
Codec ID : A_AC3
Duration : 1h 18mn
Bit rate mode : Constant
Bit rate : 448 Kbps
Channel(s) : 6 channels
Channel positions : Front: L C R, Side: L R, LFE
Sampling rate : 48.0 KHz
Bit depth : 16 bits
Compression mode : Lossy
Stream size : 252 MiB (17%)
Default : Yes
Forced : No

Скриншот c названием фильма

Скриншоты

 GOLD TORRENT! DOWNLOAD TRAFFIC DOES NOT CONSIDER! 
Torrent: Registered [ 2020-06-06 06:20 ]   · 77C5842D00CBD169AC729E0C0509E9BB559652D5

Download .torrent

Download

15 KB

Status: checked
Completed: 0 times
Size: 1.46 GB
Поделиться:
terms.php
[Profile] [PM]
Display posts:    
Reply to topic

Current time is: 25-Nov 10:36

All times are UTC + 3



You cannot post new topics in this forum
You cannot reply to topics in this forum
You cannot edit your posts in this forum
You cannot delete your posts in this forum
You cannot vote in polls in this forum
You cannot attach files in this forum
You can download files in this forum