Олдбой / Oldboy (Спайк Ли / Spike Lee) [2013, США, Триллер, драма, детектив, боевик, BDRip-AVC] Dub + Sub Eng + Original Eng

Reply to topic
DL-List and Torrent activity
Size:  2.18 GB   |    Registered:  3 months 17 days   |    Completed:  0 times

Seeder not seen: Never

 
   
 
 
Author Message

admin ®

Gender: Male

Longevity: 2 years 11 months

Posts: 10017

Post 11-Oct-2017 03:16

[Quote]

ОлдбойOldboy«Загадка не в том, почему тебя лишили свободы, а почему тебе её вернули»
Страна: США
Жанр: Триллер, драма, детектив, боевик
Год выпуска: 2013
Продолжительность: 01:43:46
Перевод: Профессиональный (дублированный) [Лицензия]
Субтитры: английские
Оригинальная аудиодорожка: английский
Режиссер: Спайк Ли / Spike Lee
В ролях: Джош Бролин, Элизабет Олсен, Шарлто Копли, Сэмюэл Л. Джексон, Майкл Империоли, Пом Клементьефф, Джеймс Рэнсон, Макс Казелла, Линда Эмонд, Элвис Ноласко
Описание: Фильм рассказывает о рекламщике, которого некто похитил и 20 лет продержал в одиночной камере, никак не объясняя своих мотивов. Столь же неожиданно получив однажды свободу, он решает разыскать того, кто организовал его похищение, и обнаруживает, что неизвестный злодей продолжает мучить его загадками. Погоня за местью приводит его к юной социальной работнице и некоему человеку, в руках которого якобы находится ключ к его спасению.
Доп. информация:

Автор рипа: potroks
Качество видео: BDRip-AVC | Олдбой / Oldboy(2013) 1080p BD-Remux|
Формат видео: MKV
Видео: 1032x430 (2,40:1), 23,976 fps, 2112 Кbps, 0.199 bit/pixel
Аудио: 48 kHz, AC3 Dolby Digital, 3/2 (L,C,R,l,r) + LFE ch, 448.00 kbps | RUS
Аудио 2: 48 kHz, AC3 Dolby Digital, 3/2 (L,C,R,l,r) + LFE ch, 448.00 kbps | ENG
Формат субтитров: softsub (SRT)
Доп. информация о субтитрах: отключаемые

MediaInfo

General
Unique ID : 174437677914514447853271232496116718420 (0x833B79881197CEDEAAFBCD9FF2285B54)
Complete name : F:\Фильмы\Одбой 2.18\Oldboi.2013.DUAL.BDRip.x264.mkv
Format : Matroska
Format version : Version 4 / Version 2
File size : 2.18 GiB
Duration : 1h 43mn
Overall bit rate : 3 007 Kbps
Movie name : Oldboy
Encoded date : UTC 2014-02-17 13:58:23
Writing application : mkvmerge v5.9.0 ('On The Loose') built on Dec 15 2012 16:39:58
Writing library : libebml v1.3.0 + libmatroska v1.4.0
Video
ID : 1
Format : AVC
Format/Info : Advanced Video Codec
Format profile : High@L4.1
Format settings, CABAC : Yes
Format settings, ReFrames : 10 frames
Codec ID : V_MPEG4/ISO/AVC
Duration : 1h 43mn
Bit rate : 2 112 Kbps
Width : 1 032 pixels
Height : 430 pixels
Display aspect ratio : 2.40:1
Frame rate mode : Constant
Frame rate : 23.976 fps
Color space : YUV
Chroma subsampling : 4:2:0
Bit depth : 8 bits
Scan type : Progressive
Bits/(Pixel*Frame) : 0.199
Stream size : 1.49 GiB (68%)
Title : Oldboy
Writing library : x264 core 130 r2273 b3065e6
Encoding settings : cabac=1 / ref=10 / deblock=1:-3:-3 / analyse=0x3:0x133 / me=umh / subme=11 / psy=1 / psy_rd=0.94:0.00 / mixed_ref=1 / me_range=32 / chroma_me=1 / trellis=2 / 8x8dct=1 / cqm=0 / deadzone=21,11 / fast_pskip=0 / chroma_qp_offset=-2 / threads=6 / lookahead_threads=1 / sliced_threads=0 / nr=0 / decimate=0 / interlaced=0 / bluray_compat=0 / constrained_intra=0 / bframes=11 / b_pyramid=2 / b_adapt=2 / b_bias=0 / direct=3 / weightb=1 / open_gop=0 / weightp=2 / keyint=250 / keyint_min=23 / scenecut=40 / intra_refresh=0 / rc_lookahead=60 / rc=2pass / mbtree=0 / bitrate=2112 / ratetol=1.0 / qcomp=0.70 / qpmin=0 / qpmax=69 / qpstep=4 / cplxblur=20.0 / qblur=0.5 / vbv_maxrate=20000 / vbv_bufsize=20000 / nal_hrd=none / ip_ratio=1.35 / pb_ratio=1.25 / aq=1:1.00
Language : English
Default : Yes
Forced : No
Audio #1
ID : 2
Format : AC-3
Format/Info : Audio Coding 3
Mode extension : CM (complete main)
Format settings, Endianness : Big
Codec ID : A_AC3
Duration : 1h 43mn
Bit rate mode : Constant
Bit rate : 448 Kbps
Channel(s) : 6 channels
Channel positions : Front: L C R, Side: L R, LFE
Sampling rate : 48.0 KHz
Bit depth : 16 bits
Compression mode : Lossy
Stream size : 333 MiB (15%)
Title : Dub | DD 5.1 @ 448 kbps
Language : Russian
Default : Yes
Forced : No
Audio #2
ID : 3
Format : AC-3
Format/Info : Audio Coding 3
Mode extension : CM (complete main)
Format settings, Endianness : Big
Codec ID : A_AC3
Duration : 1h 43mn
Bit rate mode : Constant
Bit rate : 448 Kbps
Channel(s) : 6 channels
Channel positions : Front: L C R, Side: L R, LFE
Sampling rate : 48.0 KHz
Bit depth : 16 bits
Compression mode : Lossy
Stream size : 333 MiB (15%)
Title : Original | DD 5.1 @ 448 kbps
Language : English
Default : No
Forced : No
Text #1
ID : 4
Format : UTF-8
Codec ID : S_TEXT/UTF8
Codec ID/Info : UTF-8 Plain Text
Title : Fuul
Language : English
Default : No
Forced : No
Text #2
ID : 5
Format : UTF-8
Codec ID : S_TEXT/UTF8
Codec ID/Info : UTF-8 Plain Text
Title : SDH
Language : English
Default : No
Forced : No
Text #3
ID : 6
Format : UTF-8
Codec ID : S_TEXT/UTF8
Codec ID/Info : UTF-8 Plain Text
Title : SDH-Colored
Language : English
Default : No
Forced : No
Menu
00:00:00.000 : en:(01)00:00:00:000
00:04:45.118 : en:(02)00:04:45:118
00:10:13.988 : en:(03)00:10:13:988
00:16:15.599 : en:(04)00:16:15:599
00:22:18.712 : en:(05)00:22:18:712
00:30:30.161 : en:(06)00:30:30:161
00:34:31.110 : en:(07)00:34:31:110
00:43:42.369 : en:(08)00:43:42:369
00:52:15.423 : en:(09)00:52:15:423
00:56:28.676 : en:(10)00:56:28:676
01:04:09.512 : en:(11)01:04:09:512
01:10:00.487 : en:(12)01:10:00:487
01:17:15.047 : en:(13)01:17:15:047
01:22:37.410 : en:(14)01:22:37:410
01:29:46.881 : en:(15)01:29:46:881
01:37:15.579 : en:(16)01:37:15:579

Скриншот c названием фильма

Скриншоты

 GOLD TORRENT! DOWNLOAD TRAFFIC DOES NOT CONSIDER! 
Torrent: Registered [ 2020-06-06 06:21 ]   · 62F4E937BD2CAEDAAF108CC6A70A8B7266C9DF50

Download .torrent

Download

11 KB

Status: checked
Completed: 0 times
Size: 2.18 GB
Поделиться:
terms.php
[Profile] [PM]
Display posts:    
Reply to topic

Current time is: 24-Sep 02:04

All times are UTC + 3



You cannot post new topics in this forum
You cannot reply to topics in this forum
You cannot edit your posts in this forum
You cannot delete your posts in this forum
You cannot vote in polls in this forum
You cannot attach files in this forum
You can download files in this forum