Падение последней империи / 1911 / Xinhai geming (Джеки Чан / Jackie Chan, Чжан Ли / Li Zhang) [2011, Китай, Гонконг, Боевик, драма, приключения, BDRip-AVC] DVO + Sub Chinese, Eng + Original Chinese

Reply to topic
DL-List and Torrent activity
Size:  4.21 GB   |    Registered:  3 months 25 days   |    Completed:  0 times

Seeder not seen: Never

 
   
 
 
Author Message

admin ®

Gender: Male

Longevity: 3 years

Posts: 10018

Post 11-Oct-2017 02:48

[Quote]

Падение последней империи / 1911Xin hai ge ming«Великая Китайская революция» Режиссерская версия / Director's Cut

Страна: Китай, Гонконг
Жанр: Боевик, драма, приключения
Год выпуска: 2011
Продолжительность: 02:01:00
Перевод:Профессиональный (двухголосый закадровый) BD
Субтитры: Английские,китайские
Оригинальная аудиодорожка: Китайский
Режиссер: Джеки Чан / Jackie Chan, Чжан Ли / Li Zhang
В ролях: Джеки Чан, Уинстон Чао, Ли Бинбин, Сунь Чунь, Джоан Чэнь, У Цзян, Джейси Чан, Гэ Ху, Нин Цзин, Юй Шаоцюнь
Описание: Китай, 1911 г. Период политической нестабильности и революционных настроений в государстве. На фоне общей неразберихи и неопределённости, некто Сунь Ятсен поднимает восстание и направляет мощь своих войск с одной единственной целью - свергнуть правящую династию Цин и установить новый, социально направленный режим управления республикой.
Доп. информация:
Релиз группы:
Качество видео: BDRip-AVC | Падение последней империи / 1911 / Xinhai geming (2011) [Director's] 1080p BD-Remux|HD Club|
Формат видео: MKV
Видео:1136x484 (2:35:1), 24,00 fps, 4000 Кbps, 0.303 bit/pixe
Аудио: 48 kHz, AC3 Dolby Digital, 3/2 (L,C,R,l,r) + LFE ch, ~448.00 kbps avg | DVO
Аудио 2: 48 kHz, AC3 Dolby Digital, 3/2 (L,C,R,l,r) + LFE ch, ~448.00 kbps avg | Chinese
Формат субтитров: softsub (SRT)
Доп. информация о субтитрах: отключаемые

Знаете ли Вы что

• Когда революционный лидер находится на океанском лайнере, следующем в Китай, спасательные шлюпки на палубе слишком современные: они окрашены в ярко-оранжевый цвет и имеют встроенные двигатели. Действие фильма происходит в 1911 году, и спасательные шлюпки того времени были безмоторными лодками, как правило, окрашенными в белый цвет.
• Первое время в России фильм имел название «1911», но позже ему вернули оригинальное название.
• Черно-красно-золотые флаги Германии, показанные в некоторых сценах, стали применяться только после 1949 года. В 1911 году немецкие флаги должны были быть черно-бело-красными.

MediaInfo

General
Unique ID : 227411608702187144081760189371992586919 (0xAB15E1F7FA2899CCAE17E388C3493AA7)
Complete name : D:\Мои рипы\Падение последней империи\Xin hai ge ming by_IVAN@190282.mkv
Format : Matroska
Format version : Version 4 / Version 2
File size : 4.21 GiB
Duration : 2h 0mn
Overall bit rate : 4 995 Kbps
Encoded date : UTC 2015-10-29 01:10:26
Writing application : mkvmerge v8.4.0 ('A better way to fly') 64bit
Writing library : libebml v1.3.1 + libmatroska v1.4.2
Attachements : cover.jpg
DURATION : 01:53:26.292000000
NUMBER_OF_FRAMES : 2013
NUMBER_OF_BYTES : 47656
_STATISTICS_WRITING_APP : mkvmerge v8.4.0 ('A better way to fly') 64bit
_STATISTICS_WRITING_DATE_UT : 2015-10-29 01:10:26
_STATISTICS_TAGS : BPS DURATION NUMBER_OF_FRAMES NUMBER_OF_BYTES
Video
ID : 1
Format : AVC
Format/Info : Advanced Video Codec
Format profile : High@L4.1
Format settings, CABAC : Yes
Format settings, ReFrames : 12 frames
Codec ID : V_MPEG4/ISO/AVC
Duration : 2h 0mn
Bit rate : 4 000 Kbps
Width : 1 136 pixels
Height : 484 pixels
Display aspect ratio : 2.35:1
Frame rate mode : Constant
Frame rate : 24.000 fps
Color space : YUV
Chroma subsampling : 4:2:0
Bit depth : 8 bits
Scan type : Progressive
Bits/(Pixel*Frame) : 0.303
Stream size : 3.37 GiB (80%)
Title : Xin hai ge ming by_IVAN@190282
Writing library : x264 core 148 r2638kMod 7599210
Encoding settings : cabac=1 / ref=12 / deblock=1:-3:-3 / analyse=0x3:0x133 / me=umh / subme=11 / psy=1 / fade_compensate=0.00 / psy_rd=1.00:0.05 / mixed_ref=1 / me_range=48 / chroma_me=1 / trellis=2 / 8x8dct=1 / cqm=0 / deadzone=21,11 / fast_pskip=0 / chroma_qp_offset=-3 / threads=6 / lookahead_threads=6 / sliced_threads=0 / nr=0 / decimate=1 / interlaced=0 / bluray_compat=0 / constrained_intra=0 / fgo=0 / bframes=16 / b_pyramid=2 / b_adapt=2 / b_bias=0 / direct=3 / weightb=1 / open_gop=0 / weightp=2 / keyint=240 / keyint_min=23 / scenecut=40 / intra_refresh=0 / rc_lookahead=60 / rc=crf / mbtree=0 / crf=17.1000 / qcomp=0.60 / qpmin=0 / qpmax=69 / qpstep=4 / vbv_maxrate=50000 / vbv_bufsize=62500 / crf_max=0.0 / nal_hrd=none / filler=0 / ip_ratio=1.40 / pb_ratio=1.30 / aq=2:1.10
Language : English
Default : Yes
Forced : No
Color range : Limited
Color primaries : BT.709
Transfer characteristics : BT.709
Matrix coefficients : BT.709
DURATION : 02:00:31.006000000
NUMBER_OF_FRAMES : 173544
NUMBER_OF_BYTES : 3703013032
_STATISTICS_WRITING_APP : mkvmerge v8.4.0 ('A better way to fly') 64bit
_STATISTICS_WRITING_DATE_UT : 2015-10-29 01:10:26
_STATISTICS_TAGS : BPS DURATION NUMBER_OF_FRAMES NUMBER_OF_BYTES
Audio #1
ID : 2
Format : AC-3
Format/Info : Audio Coding 3
Mode extension : CM (complete main)
Format settings, Endianness : Big
Codec ID : A_AC3
Duration : 2h 0mn
Bit rate mode : Constant
Bit rate : 448 Kbps
Channel(s) : 6 channels
Channel positions : Front: L C R, Side: L R, LFE
Sampling rate : 48.0 KHz
Compression mode : Lossy
Stream size : 386 MiB (9%)
Title : Dvo
Default : Yes
Forced : No
Audio #2
ID : 3
Format : AC-3
Format/Info : Audio Coding 3
Mode extension : CM (complete main)
Format settings, Endianness : Big
Codec ID : A_AC3
Duration : 2h 0mn
Bit rate mode : Constant
Bit rate : 448 Kbps
Channel(s) : 6 channels
Channel positions : Front: L C R, Side: L R, LFE
Sampling rate : 48.0 KHz
Compression mode : Lossy
Stream size : 386 MiB (9%)
Title : Chinese
Language : Chinese
Default : No
Forced : No
Text #1
ID : 4
Format : UTF-8
Codec ID : S_TEXT/UTF8
Codec ID/Info : UTF-8 Plain Text
Title : Eng
Language : English
Default : No
Forced : No
Text #2
ID : 5
Format : UTF-8
Codec ID : S_TEXT/UTF8
Codec ID/Info : UTF-8 Plain Text
Title : Chinese
Language : Chinese
Default : No
Forced : No
Menu
00:00:00.000 : en:Chapter 1
00:07:33.411 : en:Chapter 2
00:12:00.302 : en:Chapter 3
00:12:59.445 : en:Chapter 4
00:15:55.370 : en:Chapter 5
00:20:56.922 : en:Chapter 6
00:23:15.434 : en:Chapter 7
00:25:52.675 : en:Chapter 8
00:29:59.255 : en:Chapter 9
00:38:14.041 : en:Chapter 10
00:46:43.842 : en:Chapter 11
00:49:46.315 : en:Chapter 12
00:53:19.528 : en:Chapter 13
00:55:10.222 : en:Chapter 14
00:58:07.858 : en:Chapter 15
01:08:42.326 : en:Chapter 16
01:12:22.337 : en:Chapter 17
01:15:45.707 : en:Chapter 18
01:19:10.162 : en:Chapter 19
01:22:46.836 : en:Chapter 20
01:25:09.686 : en:Chapter 21
01:28:07.738 : en:Chapter 22
01:31:15.552 : en:Chapter 23
01:36:02.756 : en:Chapter 24
01:37:35.890 : en:Chapter 25
01:40:35.404 : en:Chapter 26
01:45:16.518 : en:Chapter 27
01:48:44.475 : en:Chapter 28
01:50:31.750 : en:Chapter 29
01:52:36.541 : en:Chapter 30

x264 log

VIDEO ENCODING
x264 [info]: frame I:1394 Avg QP:16.21 size: 84136 PSNR Mean Y:46.57 U:51.10 V:51.94 Avg:47.67 Global:47.10
x264 [info]: frame P:39200 Avg QP:17.65 size: 39927 PSNR Mean Y:45.13 U:49.92 V:50.71 Avg:46.25 Global:45.43
x264 [info]: frame B:132950 Avg QP:19.56 size: 15198 PSNR Mean Y:43.96 U:49.48 V:50.42 Avg:45.18 Global:44.39
x264 [info]: consecutive B-frames: 3.0% 3.6% 11.1% 17.8% 14.0% 35.9% 5.1% 1.9% 3.5% 0.8% 0.8% 0.6% 0.4% 0.5% 0.4% 0.1% 0.4%
x264 [total]: encoded 173544 frames, 4.99 fps, 4096.82 kb/s, duration 9:39:41.78

Скриншот c названием фильма

Скриншоты

Убедительная просьба пожалуйста кто скачал не бросайте раздачу!!!
Torrent: Registered [ 2020-06-06 05:09 ]   · EE2597C8147028EB3515C0B602722AF2482E523C

Download .torrent

Download

11 KB

Status: checked
Completed: 0 times
Size: 4.21 GB
Поделиться:
terms.php
[Profile] [PM]
Display posts:    
Reply to topic

Current time is: 01-Oct 17:40

All times are UTC + 3



You cannot post new topics in this forum
You cannot reply to topics in this forum
You cannot edit your posts in this forum
You cannot delete your posts in this forum
You cannot vote in polls in this forum
You cannot attach files in this forum
You can download files in this forum