Бригада. Наследник / Бригада-2 (Денис Алексеев) [2012, криминальный, боевик, BDRip]

Reply to topic
 
Author Message

admin ®

Gender: Male

Longevity: 3 years

Posts: 10019

Post 11-Oct-2017 02:30

[Quote]

Бригада. Наследник / Бригада-2
Жанр: криминальный, боевик,
Год выпуска: 2012
Продолжительность: 01:46:11
Режиссёр: Денис Алексеев
В ролях: Иван Макаревич, Екатерина Гусева, Кирилл Нагиев, Юрий Чурсин, Анна Попова, Александр Иншаков, Игорь Жижикин, Владислав Дёмин, Валерий Золотухин, Наталья Гуслистая, Сергей Бадюк, Михаил Дорожкин, Оскар Кучера, Алексей Малашкин, Светлана Фролова, Яков Плоткин, Пётр Гольцов, Алексей Петрухин, Георгий Пахаленко
Описание: Фильм является идейным продолжением жизни героев телесериала «Бригада». Однако, акцент смещен в историю сына Александра Белова — Ивана. Это кино о современной России. О том, что у всех на устах: политике, коррупции, цинизме крупного бизнеса и спецслужб. О новом поколении, которое, узнав правду о нечистом бизнесе родителей, не идет по их стопам, а выбирает новый путь. Для них дороги понятия чести, любви и Родины. Герой, комфортно живший за границей, тем не менее, выбирает Россию (в отличие от сериала) и остается жить в ней, надеясь привнести эти идеалы в жизнь своих близких и страны в целом.
Доп. информация:

Качество видео: BDRip (исходник - Blu-ray Disc)
Формат видео: AVI
Видео: 720x304 (2.37:1), 24 fps, XviD 1.2.1, 1503 kbps avg, 0.29 bit/pixel
Аудио: 48 kHz, AC3 Dolby Digital, 3/2 (L,C,R,l,r) + LFE ch, 448 kbps

MediaInfo

Полное имя : C:\Фильмы\БригадаНаследник\Brigada.naslednik.2012.BDRip.1.46.avi
Формат : AVI
Формат/Информация : Audio Video Interleave
Размер файла : 1,45 Гбайт
Продолжительность : 1 ч. 46 м.
Общий поток : 1961 Кбит/сек
Название фильма : Brigada.naslednik.2012.BDRip.1.46.avi
Программа кодирования : VirtualDubMod 1.5.10.2 (build 2540/release)
Библиотека кодирования : VirtualDubMod build 2540/release
Видео
Идентификатор : 0
Формат : MPEG-4 Visual
Профиль формата : Advanced Simple@L5
Параметр BVOP формата : 2
Параметр QPel формата : Нет
Параметр GMC формата : Без точки перехода
Параметр матрицы формата : Default (H.263)
Идентификатор кодека : XVID
Идентификатор кодека/Подсказка : XviD
Продолжительность : 1 ч. 46 м.
Битрейт : 1504 Кбит/сек
Ширина : 720 пикселей
Высота : 304 пикселя
Соотношение сторон : 2,35:1
Частота кадров : 24,000 кадра/сек
Цветовое пространство : YUV
Субдискретизация насыщенности : 4:2:0
Битовая глубина : 8 бит
Тип развёртки : Прогрессивная
Метод сжатия : С потерями
Бит/(Пиксели*Кадры) : 0.286
Размер потока : 1,12 Гбайт (77%)
Библиотека кодирования : XviD 1.2.1 (UTC 2008-12-04)
Аудио
Идентификатор : 1
Формат : AC-3
Формат/Информация : Audio Coding 3
Расширение режима : CM (complete main)
Параметр Endianness формата : Big
Идентификатор кодека : 2000
Продолжительность : 1 ч. 46 м.
Вид битрейта : Постоянный
Битрейт : 448 Кбит/сек
Каналы : 6 каналов
Расположение каналов : Front: L C R, Side: L R, LFE
Частота : 48,0 КГц
Битовая глубина : 16 бит
Метод сжатия : С потерями
Размер потока : 340 Мбайт (23%)
Выравнивание : Разделение по промежуткам
Продолжительность промежутка : 42 мс. (1,00 видеокадр)
Время предзагрузки промежутка : 500 мс.

Скриншот c названием фильма

Скриншоты

[Profile] [PM]
Display posts:    
Reply to topic

Current time is: 27-Sep 16:07

All times are UTC + 3



You cannot post new topics in this forum
You cannot reply to topics in this forum
You cannot edit your posts in this forum
You cannot delete your posts in this forum
You cannot vote in polls in this forum
You cannot attach files in this forum
You can download files in this forum