Железный кулак 2 / The Man with the Iron Fists 2 (Роэль Рейн / Roel Reine) [2015, США, Боевик, , BDRip-AVC] Dub + Sub Rus, Eng + Original Eng

Reply to topic
DL-List and Torrent activity
Size:  3.43 GB   |    Registered:  2 years 11 months   |    Completed:  0 times

Seeder not seen: Never

 
   
 
 
Author Message

admin ®

Gender: Male

Longevity: 3 years

Posts: 10017

Post 11-Oct-2017 02:22

[Quote]

Железный кулак 2The Man with the Iron Fists 2

Страна: США
Студия: Iron Fists
Жанр: Боевик
Год выпуска: 2015
Продолжительность: 01:30:25
Перевод: Профессиональный (дублированный) Blu-ray CEE
Субтитры: Русские,английские
Оригинальная аудиодорожка: английский
Режиссер: Роэль Рейн / Roel Reine
В ролях: RZA, Кэри-Хироюки Тагава, Сахайак Бунсанакит, Pim Bubear, Оушен Хоу, Грэйс Хуанг, Хой Линь, Карл Нг, Дастин Нгуен
Описание: Шахтер Ли Кунг и его жена А Ни обнаружили раненного незнакомца Фаддеуса около деревни и дали ему убежище. После лечения он ввязался в конфликт со зловещим мастером Хо, его мерзким кланом Битл и ужасным Лордом Пи.
Доп. информация:
Релиз группы:
Сохранены оригинальные главы как на Bluray
Качество видео: BDRip-AVC Железный кулак 2 / The Man with the Iron Fists 2 Blu-ray CEE
Формат видео: MKV
Видео: 1088x612 (16:9), 23,976 fps, 4430 Кbps, 0.278 bit/pixe
Аудио: 48 kHz, AC3 Dolby Digital, 3/2 (L,C,R,l,r) + LFE ch, ~448.00 kbps avg DUB
Аудио 2: 48 kHz, AC3 Dolby Digital, 3/2 (L,C,R,l,r) + LFE ch, ~448.00 kbps avg ENG
Формат субтитров: softsub (SRT)
Доп. информация о субтитрах: отключаемые

MediaInfo

General
Unique ID : 249826519023957532667470182732957924343 (0xBBF2D65F2093D03FA16AF6839486BBF7)
Complete name : E:\Мои рипы\Железный кулак 2\The Man with the Iron Fists 2 by_IVAN@190282.mkv
Format : Matroska
Format version : Version 4 / Version 2
File size : 3.43 GiB
Duration : 1h 30mn
Overall bit rate : 5 435 Kbps
Movie name : The Man with the Iron Fists 2 by_IVAN@190282
Encoded date : UTC 2016-03-05 03:00:53
Writing application : mkvmerge v8.8.0 ('Wind at my back') 64bit
Writing library : libebml v1.3.3 + libmatroska v1.4.4
Attachements : cover.jpg
DURATION : 01:25:36.257000000
NUMBER_OF_FRAMES : 876
NUMBER_OF_BYTES : 25541
_STATISTICS_WRITING_APP : mkvmerge v8.8.0 ('Wind at my back') 64bit
_STATISTICS_WRITING_DATE_UT : 2016-03-05 03:00:53
_STATISTICS_TAGS : BPS DURATION NUMBER_OF_FRAMES NUMBER_OF_BYTES
Video
ID : 1
Format : AVC
Format/Info : Advanced Video Codec
Format profile : High@L4.1
Format settings, CABAC : Yes
Format settings, ReFrames : 14 frames
Codec ID : V_MPEG4/ISO/AVC
Duration : 1h 30mn
Bit rate : 4 430 Kbps
Width : 1 088 pixels
Height : 612 pixels
Display aspect ratio : 16:9
Frame rate mode : Constant
Frame rate : 23.976 fps
Color space : YUV
Chroma subsampling : 4:2:0
Bit depth : 8 bits
Scan type : Progressive
Bits/(Pixel*Frame) : 0.278
Stream size : 2.80 GiB (82%)
Title : The Man with the Iron Fists 2 by_IVAN@190282
Writing library : x264 core 146 r2538kMod 121396c
Encoding settings : cabac=1 / ref=14 / deblock=1:-3:-2 / analyse=0x3:0x133 / me=umh / subme=11 / psy=1 / fade_compensate=0.00 / psy_rd=1.00:0.05 / mixed_ref=1 / me_range=48 / chroma_me=1 / trellis=2 / 8x8dct=1 / cqm=0 / deadzone=21,11 / fast_pskip=0 / chroma_qp_offset=-3 / threads=6 / lookahead_threads=6 / sliced_threads=0 / nr=0 / decimate=1 / interlaced=0 / bluray_compat=0 / constrained_intra=0 / fgo=0 / bframes=16 / b_pyramid=2 / b_adapt=2 / b_bias=0 / direct=3 / weightb=1 / open_gop=0 / weightp=2 / keyint=240 / keyint_min=23 / scenecut=40 / intra_refresh=0 / rc_lookahead=60 / rc=crf / mbtree=0 / crf=19.2000 / qcomp=0.60 / qpmin=0 / qpmax=69 / qpstep=4 / vbv_maxrate=50000 / vbv_bufsize=62500 / crf_max=0.0 / nal_hrd=none / filler=0 / ip_ratio=1.40 / pb_ratio=1.30 / aq=2:1.80
Language : English
Default : Yes
Forced : No
Color range : Limited
Color primaries : BT.709
Transfer characteristics : BT.709
Matrix coefficients : BT.709
DURATION : 01:30:25.629000000
NUMBER_OF_FRAMES : 130085
NUMBER_OF_BYTES : 3076467319
_STATISTICS_WRITING_APP : mkvmerge v8.8.0 ('Wind at my back') 64bit
_STATISTICS_WRITING_DATE_UT : 2016-03-05 03:00:53
_STATISTICS_TAGS : BPS DURATION NUMBER_OF_FRAMES NUMBER_OF_BYTES
Audio #1
ID : 2
Format : AC-3
Format/Info : Audio Coding 3
Mode extension : CM (complete main)
Format settings, Endianness : Big
Codec ID : A_AC3
Duration : 1h 30mn
Bit rate mode : Constant
Bit rate : 448 Kbps
Channel(s) : 6 channels
Channel positions : Front: L C R, Side: L R, LFE
Sampling rate : 48.0 KHz
Compression mode : Lossy
Stream size : 290 MiB (8%)
Title : Dub
Language : Russian
Default : Yes
Forced : No
Audio #2
ID : 3
Format : AC-3
Format/Info : Audio Coding 3
Mode extension : CM (complete main)
Format settings, Endianness : Big
Codec ID : A_AC3
Duration : 1h 30mn
Bit rate mode : Constant
Bit rate : 448 Kbps
Channel(s) : 6 channels
Channel positions : Front: L C R, Side: L R, LFE
Sampling rate : 48.0 KHz
Compression mode : Lossy
Stream size : 290 MiB (8%)
Title : Eng
Language : English
Default : No
Forced : No
Text #1
ID : 4
Format : UTF-8
Codec ID : S_TEXT/UTF8
Codec ID/Info : UTF-8 Plain Text
Title : Rus
Language : Russian
Default : No
Forced : No
Text #2
ID : 5
Format : UTF-8
Codec ID : S_TEXT/UTF8
Codec ID/Info : UTF-8 Plain Text
Title : Eng
Language : English
Default : No
Forced : No
Menu
00:00:00.000 : en:00:00:00.000
00:04:46.661 : en:00:04:46.661
00:09:44.375 : en:00:09:44.375
00:13:03.115 : en:00:13:03.115
00:15:54.745 : en:00:15:54.745
00:20:53.085 : en:00:20:53.085
00:26:05.689 : en:00:26:05.689
00:30:07.305 : en:00:30:07.305
00:33:04.440 : en:00:33:04.440
00:37:55.022 : en:00:37:55.022
00:42:22.706 : en:00:42:22.706
00:47:48.407 : en:00:47:48.407
00:53:28.538 : en:00:53:28.538
00:55:57.020 : en:00:55:57.020
01:02:02.260 : en:01:02:02.260
01:05:19.498 : en:01:05:19.498
01:10:52.706 : en:01:10:52.706
01:15:58.220 : en:01:15:58.220
01:22:05.045 : en:01:22:05.045
01:25:48.893 : en:01:25:48.893

x264 log

VIDEO ENCODING
x264 [info]: frame I:883 Avg QP:16.65 size: 95131 PSNR Mean Y:45.79 U:48.82 V:49.41 Avg:46.56 Global:45.10
x264 [info]: frame P:34625 Avg QP:18.21 size: 38062 PSNR Mean Y:45.09 U:49.11 V:49.49 Avg:45.93 Global:44.56
x264 [info]: frame B:94577 Avg QP:20.10 size: 17706 PSNR Mean Y:43.96 U:47.52 V:48.63 Avg:44.81 Global:43.39
x264 [info]: consecutive B-frames: 5.5% 5.5% 13.1% 21.8% 17.3% 28.3% 4.1% 1.4% 0.9% 0.7% 0.4% 0.5% 0.2% 0.1% 0.0% 0.1% 0.1%
x264 [total]: encoded 130085 frames, 4.06 fps, 4536.20 kb/s, duration 8:54:14.78

Скриншот с названием фильма

Скриншоты

Убедительная просьба пожалуйста кто скачал не бросайте раздачу!!!
 GOLD TORRENT! DOWNLOAD TRAFFIC DOES NOT CONSIDER! 
Torrent: Registered [ 2017-10-11 02:22 ]   · 0B928C4F8DDF0AC078C4B37D8C7F8A9DC1881000

Download .torrent

Download

18 KB

Status: checked
Completed: 0 times
Size: 3.43 GB
Поделиться:
terms.php
[Profile] [PM]
Display posts:    
Reply to topic

Current time is: 28-Sep 09:23

All times are UTC + 3



You cannot post new topics in this forum
You cannot reply to topics in this forum
You cannot edit your posts in this forum
You cannot delete your posts in this forum
You cannot vote in polls in this forum
You cannot attach files in this forum
You can download files in this forum