Мужчины, женщины и дети / Men, Women & Children (Джейсон Райтман / Jason Reitman) [2014, США, Драма, мелодрама, комедия, BDRip-AVC] Dub + Sub Rus, Eng + Original Eng

Reply to topic
DL-List and Torrent activity
Size:  2.94 GB   |    Registered:  3 months 25 days   |    Completed:  0 times

Seeder not seen: Never

 
   
 
 
Author Message

admin ®

Gender: Male

Longevity: 3 years

Posts: 10018

Post 11-Oct-2017 01:59

[Quote]

Мужчины, женщины и детиMen, Women & Children

Страна: США
Жанр: Драма, мелодрама, комедия
Год выпуска: 2014
Продолжительность: 01:59:27
Перевод: Профессиональный (дублированный) Blu-ray CEE
Субтитры: русские,английские
Оригинальная аудиодорожка: английский
Режиссер: Джейсон Райтман / Jason Reitman
В ролях: Адам Сэндлер, Дженнифер Гарнер, Розмари ДеУитт, Джуди Грир, Дин Норрис, Эмма Томпсон, Тимоти Чаламет, Оливия Крочиккия, Кейтлин Девер, Энсел Элгорт
Описание: История о группе подростков и их родителях, которые пытаются понять, как интернет изменил их отношения, их связь, самооценку и любовь друг к другу.
Доп. информация:
Релиз группы:
Сохранены оригинальные главы как на Bluray
Качество видео: BDRip-AVC Мужчины, женщины и дети / Men, Women & Children (2014) Blu-ray CEE 1080p AVC DD5.1
Формат видео: MKV
Видео: 1152x648 (16:9), 23,976 fps, 2574 Кbps, 0.144 bit/pixe
Аудио: 48 kHz, AC3 Dolby Digital, 3/2 (L,C,R,l,r) + LFE ch, ~448.00 kbps avg | DUB
Аудио 2: 48 kHz, AC3 Dolby Digital, 3/2 (L,C,R,l,r) + LFE ch, ~448.00 kbps avg | ENG
Формат субтитров: softsub (SRT)
Доп. информация о субтитрах: отключаемые

Знаете ли Вы что

Фильм снят по мотивам романа Чада Калтгена «Мужчины, женщины и дети» (Men, Women and Children, 2011).

MediaInfo

General
Unique ID : 190193482645398935679262794943960125796 (0x8F15EEAE3046BAE6AE273D285E1F1164)
Complete name : E:\Мои рипы\Мужчины, женщины и дети\Men, Women & Children by_IVAN@190282.mkv
Format : Matroska
Format version : Version 4 / Version 2
File size : 2.94 GiB
Duration : 1h 59mn
Overall bit rate : 3 524 Kbps
Encoded date : UTC 2016-03-09 23:09:58
Writing application : mkvmerge v8.8.0 ('Wind at my back') 64bit
Writing library : libebml v1.3.3 + libmatroska v1.4.4
Attachements : cover.png
DURATION : 01:52:27.533000000
NUMBER_OF_FRAMES : 1206
NUMBER_OF_BYTES : 38193
_STATISTICS_WRITING_APP : mkvmerge v8.8.0 ('Wind at my back') 64bit
_STATISTICS_WRITING_DATE_UT : 2016-03-09 23:09:58
_STATISTICS_TAGS : BPS DURATION NUMBER_OF_FRAMES NUMBER_OF_BYTES
Video
ID : 1
Format : AVC
Format/Info : Advanced Video Codec
Format profile : High@L4.1
Format settings, CABAC : Yes
Format settings, ReFrames : 13 frames
Codec ID : V_MPEG4/ISO/AVC
Duration : 1h 59mn
Bit rate : 2 558 Kbps
Width : 1 152 pixels
Height : 648 pixels
Display aspect ratio : 16:9
Frame rate mode : Constant
Frame rate : 23.976 fps
Color space : YUV
Chroma subsampling : 4:2:0
Bit depth : 8 bits
Scan type : Progressive
Bits/(Pixel*Frame) : 0.143
Stream size : 2.13 GiB (73%)
Writing library : x264 core 144 r2525kMod 40bb568
Encoding settings : cabac=1 / ref=13 / deblock=1:-3:-3 / analyse=0x3:0x113 / me=umh / subme=11 / psy=1 / fade_compensate=0.00 / psy_rd=1.00:0.15 / mixed_ref=1 / me_range=48 / chroma_me=1 / trellis=2 / 8x8dct=1 / cqm=0 / deadzone=21,11 / fast_pskip=0 / chroma_qp_offset=0 / threads=6 / lookahead_threads=6 / sliced_threads=0 / slices=10 / nr=0 / decimate=1 / interlaced=0 / bluray_compat=0 / constrained_intra=0 / fgo=0 / bframes=16 / b_pyramid=2 / b_adapt=2 / b_bias=0 / direct=1 / weightb=1 / open_gop=1 / weightp=2 / keyint=240 / keyint_min=23 / scenecut=40 / intra_refresh=0 / rc_lookahead=40 / rc=crf / mbtree=0 / crf=17.4000 / qcomp=0.60 / qpmin=0 / qpmax=69 / qpstep=4 / vbv_maxrate=50000 / vbv_bufsize=62500 / crf_max=0.0 / nal_hrd=none / filler=0 / ip_ratio=1.40 / pb_ratio=1.30 / aq=1:1.00
Default : Yes
Forced : No
Color range : Limited
Color primaries : BT.709
Transfer characteristics : BT.709
Matrix coefficients : BT.709
Audio #1
ID : 2
Format : AC-3
Format/Info : Audio Coding 3
Mode extension : CM (complete main)
Format settings, Endianness : Big
Codec ID : A_AC3
Duration : 1h 59mn
Bit rate mode : Constant
Bit rate : 448 Kbps
Channel(s) : 6 channels
Channel positions : Front: L C R, Side: L R, LFE
Sampling rate : 48.0 KHz
Compression mode : Lossy
Stream size : 383 MiB (13%)
Title : Dub
Default : Yes
Forced : No
Audio #2
ID : 3
Format : AC-3
Format/Info : Audio Coding 3
Mode extension : CM (complete main)
Format settings, Endianness : Big
Codec ID : A_AC3
Duration : 1h 59mn
Bit rate mode : Constant
Bit rate : 448 Kbps
Channel(s) : 6 channels
Channel positions : Front: L C R, Side: L R, LFE
Sampling rate : 48.0 KHz
Compression mode : Lossy
Stream size : 383 MiB (13%)
Title : Eng
Default : No
Forced : No
Text #1
ID : 4
Format : UTF-8
Codec ID : S_TEXT/UTF8
Codec ID/Info : UTF-8 Plain Text
Title : Rus
Default : No
Forced : No
Text #2
ID : 5
Format : UTF-8
Codec ID : S_TEXT/UTF8
Codec ID/Info : UTF-8 Plain Text
Title : Eng
Default : No
Forced : No
Menu
00:00:00.000 : en:Chapter 01
00:05:44.193 : en:Chapter 02
00:09:58.781 : en:Chapter 03
00:14:15.912 : en:Chapter 04
00:17:59.928 : en:Chapter 05
00:21:30.973 : en:Chapter 06
00:26:15.590 : en:Chapter 07
00:30:14.913 : en:Chapter 08
00:35:03.076 : en:Chapter 09
00:45:45.426 : en:Chapter 10
00:49:00.328 : en:Chapter 11
00:53:57.000 : en:Chapter 12
01:01:14.728 : en:Chapter 13
01:06:36.259 : en:Chapter 14
01:10:47.802 : en:Chapter 15
01:19:38.790 : en:Chapter 16
01:25:52.246 : en:Chapter 17
01:28:48.673 : en:Chapter 18
01:36:39.852 : en:Chapter 19
01:48:45.576 : en:Chapter 20
01:54:51.692 : en:End Credits

x264 log

VIDEO ENCODING
x264 [info]: frame I:1094 Avg QP:15.36 size: 87854
x264 [info]: frame P:31627 Avg QP:16.66 size: 31102
x264 [info]: frame B:139119 Avg QP:18.47 size: 9134
x264 [info]: consecutive B-frames: 1.3% 2.0% 5.0% 10.4% 14.0% 39.5% 9.2% 2.0% 3.8% 2.7% 2.7% 1.1% 2.4% 2.3% 0.8% 0.2% 0.5%
x264 [info]: kb/s:2623.58
x264 [total]: encoded 171840 frames, 3.45 fps, 2623.58 kb/s, duration 13:50:00.79

Скриншот с названием фильма

Скриншоты

Убедительная просьба пожалуйста кто скачал не бросайте раздачу!!!
 GOLD TORRENT! DOWNLOAD TRAFFIC DOES NOT CONSIDER! 
Torrent: Registered [ 2020-06-06 06:29 ]   · B5E0F5772780D20F030CDC9E06E9891EC864BFC6

Download .torrent

Download

15 KB

Status: checked
Completed: 0 times
Size: 2.94 GB
Поделиться:
terms.php
[Profile] [PM]
Display posts:    
Reply to topic

Current time is: 01-Oct 19:29

All times are UTC + 3



You cannot post new topics in this forum
You cannot reply to topics in this forum
You cannot edit your posts in this forum
You cannot delete your posts in this forum
You cannot vote in polls in this forum
You cannot attach files in this forum
You can download files in this forum