Шпион / Spy (Пол Фиг / Paul Feig) [2015, США, Боевик, комедия, криминал, BDRip-AVC] Dub + Sub Rus, Eng + Original Eng

Reply to topic
DL-List and Torrent activity
Size:  4.25 GB   |    Registered:  2 years 11 months   |    Completed:  0 times
Seeders:  1  [  0 KB/s  ]   Show peers in full details
 
   
 
 
Author Message

admin ®

Gender: Male

Longevity: 2 years 11 months

Posts: 10017

Post 11-Oct-2017 01:46

[Quote]

ШпионSpy«Одна из пижонов. Одна из шпионов» Полная версия / Unrated Edition

Страна: США
Жанр: Боевик, комедия, криминал
Год выпуска: 2015
Продолжительность: 02:10:22
Перевод: Профессиональный (дублированный) Bluray EUR
Субтитры: русские,английские
Оригинальная аудиодорожка: английский
Режиссер: Пол Фиг / Paul Feig
В ролях: Мелисса МакКарти, Джейсон Стэйтем, Джуд Лоу, Роуз Бирн, Миранда Харт, Бобби Каннавале, Морена Баккарин, Питер Серафинович, Эллисон Дженни, Ричард Брэйк
Описание: Сьюзан Купер всю свою жизнь мечтала стать секретным агентом и даже устроилась работать в ЦРУ. Однако, дальше сотрудника самой низкой ступени ей так и не удалось продвинуться. Понимая, что осуществить свою мечту практически невозможно, она все-таки продолжает надеяться на лучшее и с нетерпением ожидает своего шанса. И вскоре судьба дарит ей такую возможность. Лучший агент проваливает секретное задание, в ходе которого он должен был выяснить местонахождение ядерной бомбы, но, совершенно случайно, застрелил единственного человека, владеющего этой информацией.
Через некоторое время службе разведки становится известно, что Рейна Боянова знает, где находится бомба, но она также знает в лицо всех секретных агентов ЦРУ. Теперь у руководства не остается другого выбора, как воспользоваться услугами Сьюзан Купер, но сможет ли она справиться со столь сложной миссией?..
Доп. информация:
Релиз группы:
Сохранены оригинальные главы как на Bluray
Качество видео: BDRip-AVC | Шпион / Spy (2015) [UNRATED] 1080p BD-Remux|HD Club|
Формат видео: MKV
Видео: 1146x480 (2:40:1), 23,976 fps, 3679 Кbps, 0.279 bit/pixe
Аудио: 48 kHz, AC3 Dolby Digital, 3/2 (L,C,R,l,r) + LFE ch, ~448.00 kbps avg DUB
Аудио 2: 48 kHz, AC3 Dolby Digital, 3/2 (L,C,R,l,r) + LFE ch, ~448.00 kbps avg ENG
Формат субтитров: softsub (SRT)
Доп. информация о субтитрах: отключаемые

Знаете ли Вы что

• Лабиринты известняковых пещер, показанные в фильме, — это реальные пещеры протяженностью в 23 мили, расположенные под пивоваренным заводом в западной части Будапешта, Венгрия.
• Во время съемок сцены, где Андрей Данилко (Верка Сердючка) на площади исполняет песню «Dancing Lasha Tumbai», было задействовано более 300 статистов.
• Большая часть фильма была снята в окрестностях озера Балатон в Венгрии.
• В сценах драк использовались филиппинские боевые искусства. Для подготовки к этим сценам Мелисса МакКарти проходила обучение у Дайаны Ли Иносанто.
• Во время съемок сцены в самолете, когда крутое пикирование вызвало эффект невесомости, самолет был закреплен на специальном подвесе, который позволял наклонять и поворачивать его в любом направлении. Все движения самолета контролировались при помощи гидравлического управления, а к актерам и каскадерам были привязаны специальные тросы для создания такого ощущения, будто они плывут. Для подготовки к этой сцене Роуз Бирн тренировалась в бассейне, чтобы научиться контролировать свои движения.
• Фильм носил рабочее название Susan Cooper («Сьюзан Купер»), однако 28 марта 2014 года название было изменено на «Шпион».
• Несколько недель репетиций потребовалось, чтобы снять сцену драки на кухне. Непосредственно на сами съемки ушло два дня.
• Во время начальных титров звучит песня Айви Леван «Who Can You Trust».
• Часть экшн-сцен и сцены с вертолетом снимались на открытой съемочной площадке студии Fot and Origo в Будапеште, Венгрия.
• Персонаж Нэнси был написан Полом Фигом именно для Миранды Харт.
• Основные съемки фильма заняли около 12 недель.
• Самой большой конструкцией на съемочной площадке была комната связи в ЦРУ.
• Для оператора Роберта Д. Йоумена этот фильм стал первым, снятым на цифру.
• В эпизодической роли туриста, спрашивающего о том, как пройти в Burger King, снялся муж Мелиссы МакКарти Бен Фэлкоун.
• Режиссер Пол Фиг снялся в эпизодической роли. Он сыграл пьяного человека, который натыкается на стену и падает, когда Мелисса МакКарти прибывает в свой отель в Париже.

Ошибки в фильме

• В частном самолете в бокале Сьюзан Купер уровень шампанского резко меняется при смене кадра.
• Во время поездки на красном Альфа Ромео по Риму, в одной из сцен меняется приборная панель автомобиля и отверстия вентиляции.
• После того как героиня Роуз Бирн выплескивает кружку воды в лицо героини Мелиссы МакКарти, степень сырости волос Сьюзен постоянно меняется.
• Во время погони за БМВ на скутере, Сьюзан Купер вместе со скутером приземляется в свежезалитый бетон. В следующем кадре скутер чистый.

MediaInfo

General
Unique ID : 187658246241096422323647584193951500830 (0x8D2DA9E007F10AB0A463092E298F0A1E)
Complete name : D:\Мои рипы\Шпион\Spy by_IVAN@190282.mkv
Format : Matroska
Format version : Version 4 / Version 2
File size : 4.25 GiB
Duration : 2h 10mn
Overall bit rate : 4 667 Kbps
Encoded date : UTC 2016-03-01 04:03:48
Writing application : mkvmerge v8.8.0 ('Wind at my back') 64bit
Writing library : libebml v1.3.3 + libmatroska v1.4.4
Attachements : cover.jpg
DURATION : 02:09:05.660000000
NUMBER_OF_FRAMES : 2916
NUMBER_OF_BYTES : 87100
_STATISTICS_WRITING_APP : mkvmerge v8.8.0 ('Wind at my back') 64bit
_STATISTICS_WRITING_DATE_UT : 2016-03-01 04:03:48
_STATISTICS_TAGS : BPS DURATION NUMBER_OF_FRAMES NUMBER_OF_BYTES
Video
ID : 1
Format : AVC
Format/Info : Advanced Video Codec
Format profile : High@L4.1
Format settings, CABAC : Yes
Format settings, ReFrames : 12 frames
Codec ID : V_MPEG4/ISO/AVC
Duration : 2h 10mn
Bit rate : 3 678 Kbps
Width : 1 146 pixels
Height : 480 pixels
Display aspect ratio : 2.40:1
Frame rate mode : Constant
Frame rate : 23.976 fps
Color space : YUV
Chroma subsampling : 4:2:0
Bit depth : 8 bits
Scan type : Progressive
Bits/(Pixel*Frame) : 0.279
Stream size : 3.35 GiB (79%)
Title : Spy by_IVAN@190282
Writing library : x264 core 148 r2597kMod e86f3a1
Encoding settings : cabac=1 / ref=12 / deblock=1:-3:-2 / analyse=0x3:0x133 / me=umh / subme=11 / psy=1 / fade_compensate=0.00 / psy_rd=1.00:0.05 / mixed_ref=1 / me_range=48 / chroma_me=1 / trellis=2 / 8x8dct=1 / cqm=0 / deadzone=21,11 / fast_pskip=0 / chroma_qp_offset=-3 / threads=6 / lookahead_threads=6 / sliced_threads=0 / nr=0 / decimate=1 / interlaced=0 / bluray_compat=0 / constrained_intra=0 / fgo=0 / bframes=16 / b_pyramid=2 / b_adapt=2 / b_bias=0 / direct=3 / weightb=1 / open_gop=0 / weightp=2 / keyint=240 / keyint_min=23 / scenecut=40 / intra_refresh=0 / rc_lookahead=60 / rc=crf / mbtree=0 / crf=16.8000 / qcomp=0.60 / qpmin=0 / qpmax=69 / qpstep=4 / vbv_maxrate=50000 / vbv_bufsize=62500 / crf_max=0.0 / nal_hrd=none / filler=0 / ip_ratio=1.40 / pb_ratio=1.30 / aq=2:1.10
Language : English
Default : Yes
Forced : No
Color range : Limited
Color primaries : BT.709
Transfer characteristics : BT.709
Matrix coefficients : BT.709
DURATION : 02:10:23.941000000
NUMBER_OF_FRAMES : 187587
NUMBER_OF_BYTES : 3685443506
_STATISTICS_WRITING_APP : mkvmerge v8.8.0 ('Wind at my back') 64bit
_STATISTICS_WRITING_DATE_UT : 2016-03-01 04:03:48
_STATISTICS_TAGS : BPS DURATION NUMBER_OF_FRAMES NUMBER_OF_BYTES
Audio #1
ID : 2
Format : AC-3
Format/Info : Audio Coding 3
Mode extension : CM (complete main)
Format settings, Endianness : Big
Codec ID : A_AC3
Duration : 2h 10mn
Bit rate mode : Constant
Bit rate : 448 Kbps
Channel(s) : 6 channels
Channel positions : Front: L C R, Side: L R, LFE
Sampling rate : 48.0 KHz
Compression mode : Lossy
Stream size : 418 MiB (10%)
Title : Dub BD EUR
Default : Yes
Forced : No
Audio #2
ID : 3
Format : AC-3
Format/Info : Audio Coding 3
Mode extension : CM (complete main)
Format settings, Endianness : Big
Codec ID : A_AC3
Duration : 2h 10mn
Bit rate mode : Constant
Bit rate : 448 Kbps
Channel(s) : 6 channels
Channel positions : Front: L C R, Side: L R, LFE
Sampling rate : 48.0 KHz
Compression mode : Lossy
Stream size : 418 MiB (10%)
Title : Eng
Language : English
Default : No
Forced : No
Text #1
ID : 4
Format : UTF-8
Codec ID : S_TEXT/UTF8
Codec ID/Info : UTF-8 Plain Text
Title : Rus forsed
Default : Yes
Forced : Yes
Text #2
ID : 5
Format : UTF-8
Codec ID : S_TEXT/UTF8
Codec ID/Info : UTF-8 Plain Text
Title : Rus
Default : No
Forced : No
Text #3
ID : 6
Format : UTF-8
Codec ID : S_TEXT/UTF8
Codec ID/Info : UTF-8 Plain Text
Title : Eng
Language : English
Default : No
Forced : No
Menu
00:00:00.000 : :(01)00:00:00:000
00:03:38.592 : :(02)00:03:38:592
00:07:46.132 : :(03)00:07:46:132
00:10:08.691 : :(04)00:10:08:691
00:14:11.140 : :(05)00:14:11:140
00:15:42.857 : :(06)00:15:42:857
00:20:54.377 : :(07)00:20:54:377
00:23:25.862 : :(08)00:23:25:862
00:27:59.928 : :(09)00:27:59:928
00:31:11.076 : :(10)00:31:11:076
00:34:24.061 : :(11)00:34:24:061
00:39:30.576 : :(12)00:39:30:576
00:45:24.847 : :(13)00:45:24:847
00:47:42.317 : :(14)00:47:42:317
00:50:48.128 : :(15)00:50:48:128
00:55:26.655 : :(16)00:55:26:655
00:58:28.545 : :(17)00:58:28:545
01:03:35.728 : :(18)01:03:35:728
01:08:58.509 : :(19)01:08:58:509
01:11:00.130 : :(20)01:11:00:130
01:16:25.997 : :(21)01:16:25:997
01:22:32.905 : :(22)01:22:32:905
01:28:07.323 : :(23)01:28:07:323
01:33:11.417 : :(24)01:33:11:417
01:37:02.858 : :(25)01:37:02:858
01:40:18.427 : :(26)01:40:18:427
01:47:27.189 : :(27)01:47:27:189
01:50:45.054 : :(28)01:50:45:054
01:55:31.381 : :(29)01:55:31:381
01:59:40.463 : :(30)01:59:40:463
02:02:28.340 : :(31)02:02:28:340
02:05:03.662 : :(32)02:05:03:662

x264 log

VIDEO ENCODING
x264 [info]: frame I:2237 Avg QP:15.04 size:103860 PSNR Mean Y:47.84 U:50.28 V:50.33 Avg:48.51 Global:48.01
x264 [info]: frame P:43604 Avg QP:16.71 size: 39466 PSNR Mean Y:45.87 U:48.42 V:48.48 Avg:46.56 Global:45.87
x264 [info]: frame B:141746 Avg QP:18.72 size: 12221 PSNR Mean Y:45.35 U:47.98 V:48.13 Avg:46.05 Global:45.35
x264 [info]: consecutive B-frames: 3.5% 4.0% 7.9% 24.1% 20.0% 29.5% 5.8% 1.9% 1.1% 0.6% 0.5% 0.2% 0.3% 0.1% 0.0% 0.1% 0.2%
x264 [total]: encoded 187587 frames, 6.78 fps, 3768.38 kb/s, duration 7:41:13.39

Скриншот c названием фильма

Скриншоты

Убедительная просьба пожалуйста кто скачал не бросайте раздачу!!!
 GOLD TORRENT! DOWNLOAD TRAFFIC DOES NOT CONSIDER! 
Torrent: Registered [ 2017-10-11 01:46 ]   · 5CFE5F25917249585BC6DCD8BD27CF91E1673D0C

Download .torrent

Download

11 KB

Status: checked
Completed: 0 times
Size: 4.25 GB
Поделиться:
terms.php
[Profile] [PM]
Display posts:    
Reply to topic

Current time is: 24-Sep 02:15

All times are UTC + 3



You cannot post new topics in this forum
You cannot reply to topics in this forum
You cannot edit your posts in this forum
You cannot delete your posts in this forum
You cannot vote in polls in this forum
You cannot attach files in this forum
You can download files in this forum