Бегущий в лабиринте / The Maze Runner (Уэс Болл / Wes Ball) [2014, США, Великобритания, Канада, Фантастика, триллер, приключения, BDRip-AVC] Dub + Sub Rus, Eng + Original Eng

Reply to topic
DL-List and Torrent activity
Size:  2.74 GB   |    Registered:  3 months 21 day   |    Completed:  0 times

Seeder not seen: Never

 
   
 
 
Author Message

admin ®

Gender: Male

Longevity: 3 years

Posts: 10019

Post 11-Oct-2017 01:43

[Quote]

Бегущий в лабиринтеThe Maze Runner«Только не останавливайся»

Страна: США, Великобритания, Канада
Жанр: Фантастика, триллер, приключения
Год выпуска: 2014
Продолжительность: 01:53:26
Перевод: Профессиональный (дублированный) [Blu-ray ]
Субтитры: русские,английские
Режиссер: Уэс Болл / Wes Ball
В ролях: Дилан О’Брайен, Томас Сэнгстер, Кая Скоделарио, Уилл Поултер, Ки Хонг Ли, Блейк Купер, Амл Амин, Алекс Дж. Флорес, Джейкоб Латимор, Патришия Кларксон
Описание: Главный герой — подросток Томас, который просыпается в лифте, но ничего не помнит, кроме своего имени. Он оказывается среди 60 подростков, научившихся выживать в замкнутом пространстве. Раз в 30 дней прибывает новый мальчик. Группа ребят проживает в «Приюте» уже три года. Они кормятся тем, что удается вырастить на земле, и пытаются найти выход из лабиринта, окружающего их место жительства. Но однажды появляется девочка в состоянии комы...
Доп. информация:
Релиз группы:
Сохранены оригинальные главы как на Bluray
Качество видео: BDRip-AVC |Бегущий в лабиринте / The Maze Runner (2014) Blu-ray EUR 1080p AVC DTS 5.1| HD club
Формат видео: MKV
Видео: 1152x480 (2:40:1), 23,976 fps, 2495 Кbps, 0.188 bit/pixe
Аудио: 48 kHz, AC3 Dolby Digital, 3/2 (L,C,R,l,r) + LFE ch, ~448.00 kbps avg | DUB
Аудио 2: 48 kHz, AC3 Dolby Digital, 3/2 (L,C,R,l,r) + LFE ch, ~448.00 kbps avg | ENG

MediaInfo

General
Unique ID : 204054946830873561803334892834702529323 (0x99838DA126357C739AD467B3E690932B)
Complete name : D:\Мои рипы\Бегущий в лабиринте\The Maze Runner by_IVAN@190282.mkv
Format : Matroska
Format version : Version 4 / Version 2
File size : 2.74 GiB
Duration : 1h 53mn
Overall bit rate : 3 460 Kbps
Encoded date : UTC 2016-03-03 00:17:16
Writing application : mkvmerge v8.8.0 ('Wind at my back') 64bit
Writing library : libebml v1.3.3 + libmatroska v1.4.4
Attachements : cover.jpg
DURATION : 01:45:33.493000000
NUMBER_OF_FRAMES : 1526
NUMBER_OF_BYTES : 45841
_STATISTICS_WRITING_APP : mkvmerge v8.8.0 ('Wind at my back') 64bit
_STATISTICS_WRITING_DATE_UT : 2016-03-03 00:17:16
_STATISTICS_TAGS : BPS DURATION NUMBER_OF_FRAMES NUMBER_OF_BYTES
Video
ID : 1
Format : AVC
Format/Info : Advanced Video Codec
Format profile : High@L4.1
Format settings, CABAC : Yes
Format settings, ReFrames : 13 frames
Codec ID : V_MPEG4/ISO/AVC
Duration : 1h 53mn
Bit rate : 2 496 Kbps
Width : 1 152 pixels
Height : 480 pixels
Display aspect ratio : 2.40:1
Frame rate mode : Constant
Frame rate : 23.976 fps
Color space : YUV
Chroma subsampling : 4:2:0
Bit depth : 8 bits
Scan type : Progressive
Bits/(Pixel*Frame) : 0.188
Stream size : 1.98 GiB (72%)
Title : Бегущий в лабиринте by_IVAN@190282
Writing library : x264 core 144 r2525kMod 40bb568
Encoding settings : cabac=1 / ref=13 / deblock=1:-3:-3 / analyse=0x3:0x113 / me=umh / subme=11 / psy=1 / fade_compensate=0.00 / psy_rd=1.00:0.15 / mixed_ref=1 / me_range=48 / chroma_me=1 / trellis=2 / 8x8dct=1 / cqm=0 / deadzone=21,11 / fast_pskip=0 / chroma_qp_offset=0 / threads=6 / lookahead_threads=6 / sliced_threads=0 / slices=10 / nr=0 / decimate=1 / interlaced=0 / bluray_compat=0 / constrained_intra=0 / fgo=0 / bframes=16 / b_pyramid=2 / b_adapt=2 / b_bias=0 / direct=1 / weightb=1 / open_gop=1 / weightp=2 / keyint=240 / keyint_min=23 / scenecut=40 / intra_refresh=0 / rc_lookahead=40 / rc=crf / mbtree=0 / crf=17.0000 / qcomp=0.60 / qpmin=0 / qpmax=69 / qpstep=4 / vbv_maxrate=50000 / vbv_bufsize=62500 / crf_max=0.0 / nal_hrd=none / filler=0 / ip_ratio=1.40 / pb_ratio=1.30 / aq=1:1.00
Default : Yes
Forced : No
Color range : Limited
Color primaries : BT.709
Transfer characteristics : BT.709
Matrix coefficients : BT.709
Audio #1
ID : 2
Format : AC-3
Format/Info : Audio Coding 3
Mode extension : CM (complete main)
Format settings, Endianness : Big
Codec ID : A_AC3
Duration : 1h 53mn
Bit rate mode : Constant
Bit rate : 448 Kbps
Channel(s) : 6 channels
Channel positions : Front: L C R, Side: L R, LFE
Sampling rate : 48.0 KHz
Compression mode : Lossy
Stream size : 364 MiB (13%)
Title : Dub
Language : Russian
Default : Yes
Forced : No
Audio #2
ID : 3
Format : AC-3
Format/Info : Audio Coding 3
Mode extension : CM (complete main)
Format settings, Endianness : Big
Codec ID : A_AC3
Duration : 1h 53mn
Bit rate mode : Constant
Bit rate : 448 Kbps
Channel(s) : 6 channels
Channel positions : Front: L C R, Side: L R, LFE
Sampling rate : 48.0 KHz
Compression mode : Lossy
Stream size : 364 MiB (13%)
Title : Eng
Language : English
Default : No
Forced : No
Text #1
ID : 4
Format : UTF-8
Codec ID : S_TEXT/UTF8
Codec ID/Info : UTF-8 Plain Text
Title : Rus
Language : Russian
Default : No
Forced : No
Text #2
ID : 5
Format : UTF-8
Codec ID : S_TEXT/UTF8
Codec ID/Info : UTF-8 Plain Text
Title : Eng
Language : English
Default : No
Forced : No
Menu
00:00:00.000 : en:Chapter 01
00:03:12.650 : en:Chapter 02
00:07:15.977 : en:Chapter 03
00:10:25.249 : en:Chapter 04
00:14:15.563 : en:Chapter 05
00:17:21.248 : en:Chapter 06
00:19:33.338 : en:Chapter 07
00:23:21.024 : en:Chapter 08
00:24:36.391 : en:Chapter 09
00:28:13.108 : en:Chapter 10
00:31:26.009 : en:Chapter 11
00:34:12.050 : en:Chapter 12
00:37:11.812 : en:Chapter 13
00:41:00.875 : en:Chapter 14
00:42:16.617 : en:Chapter 15
00:45:47.453 : en:Chapter 16
00:48:31.825 : en:Chapter 17
00:52:57.799 : en:Chapter 18
00:55:21.776 : en:Chapter 19
00:57:58.808 : en:Chapter 20
00:59:31.150 : en:Chapter 21
01:01:35.274 : en:Chapter 22
01:05:13.910 : en:Chapter 23
01:08:42.409 : en:Chapter 24
01:12:14.246 : en:Chapter 25
01:14:22.833 : en:Chapter 26
01:20:27.823 : en:Chapter 27
01:22:25.649 : en:Chapter 28
01:25:38.174 : en:Chapter 29
01:29:41.584 : en:Chapter 30
01:33:49.457 : en:Chapter 31
01:36:43.255 : en:Chapter 32
01:39:33.425 : en:Chapter 33
01:43:05.596 : en:Chapter 34
01:45:08.218 : en:Chapter 35
01:46:12.657 : en:End Credits

x264 log

VIDEO ENCODING
x264 [info]: frame I:1103 Avg QP:15.39 size: 75167
x264 [info]: frame P:39838 Avg QP:16.81 size: 26860
x264 [info]: frame B:122259 Avg QP:17.90 size: 8387
x264 [info]: consecutive B-frames: 3.9% 4.8% 9.7% 25.0% 17.5% 23.0% 5.6% 5.4% 1.6% 0.8% 0.4% 1.1% 0.2% 0.2% 0.1% 0.1% 0.7%
x264 [info]: kb/s:2560.26
x264 [total]: encoded 163200 frames, 3.90 fps, 2560.26 kb/s, duration 11:36:39.82

Скриншот c названием фильма

Скриншоты

Убедительная просьба пожалуйста кто скачал не бросайте раздачу!!!
 GOLD TORRENT! DOWNLOAD TRAFFIC DOES NOT CONSIDER! 
Torrent: Registered [ 2020-06-06 06:32 ]   · F5047E89449ADACC7E331E4C08D189897EEC5713

Download .torrent

Download

14 KB

Status: checked
Completed: 0 times
Size: 2.74 GB
Поделиться:
terms.php
[Profile] [PM]
Display posts:    
Reply to topic

Current time is: 27-Sep 15:26

All times are UTC + 3



You cannot post new topics in this forum
You cannot reply to topics in this forum
You cannot edit your posts in this forum
You cannot delete your posts in this forum
You cannot vote in polls in this forum
You cannot attach files in this forum
You can download files in this forum