Стажёр / The Intern (Нэнси Майерс / Nancy Meyers) [2015, США, Комедия,мелодрама, BDRip-AVC] Dub + Sub Rus, Eng + Original Eng

Reply to topic
DL-List and Torrent activity
Size:  4.27 GB   |    Registered:  3 years 1 month   |    Completed:  0 times

Seeder not seen: Never

 
   
 
 
Author Message

admin ®

Gender: Male

Longevity: 3 years 2 months

Posts: 10109

Post 10-Oct-2017 08:47

[Quote]

СтажёрThe Intern«Опыт всегда в моде»

Страна: США
Жанр: Комедия,мелодрама
Год выпуска: 2015
Продолжительность: 02:01:32
Перевод: Профессиональный (дублированный) BD CEE
Субтитры: русские,английские
Оригинальная аудиодорожка: английский
Режиссер: Нэнси Майерс / Nancy Meyers
В ролях: Роберт Де Ниро, Энн Хэтэуэй, Рене Руссо, Андерс Холм, ДжоДжо Кушнер, Эндрю Рэннеллс, Адам Дивайн, Илан Кригсфелд, Зак Перлман, Джейсон Орли, Кристина Шерер, Нат Вулф
Описание: 70-летний вдовец Бен Уитакер обнаруживает, что выход на пенсию - еще не конец. Пользуясь случаем, он становится старшим стажером в интернет-магазине модной одежды под руководством Джулс Остин.
Доп. информация:
Релиз группы:
Сохранены оригинальные главы как на Bluray
Качество видео: BDRip-AVC | Стажёр / The Intern (2015) 1080p BD-Remux| HD club
Формат видео: MKV
Видео: 1002x564 (16:9), 23,976 fps, 4031 Кbps, 0.297 bit/pixe
Аудио: 48 kHz, AC3 Dolby Digital, 3/2 (L,C,R,l,r) + LFE ch, ~448.00 kbps avg DUB
Аудио 2: 48 kHz, AC3 Dolby Digital, 3/2 (L,C,R,l,r) + LFE ch, ~448.00 kbps avg ENG
Формат субтитров: softsub (SRT)
Доп. информация о субтитрах: отключаемые

MediaInfo

General
Unique ID : 217458217658570422313035777599291803627 (0xA398EDE6E0D1E6C69135370727B847EB)
Complete name : D:\Мои рипы\Стажер\The Intern by_IVAN@.190282.mkv
Format : Matroska
Format version : Version 4 / Version 2
File size : 4.27 GiB
Duration : 2h 1mn
Overall bit rate : 5 027 Kbps
Movie name : The Intern by_IVAN@190282
Encoded date : UTC 2016-02-28 03:29:28
Writing application : mkvmerge v8.8.0 ('Wind at my back') 64bit
Writing library : libebml v1.3.3 + libmatroska v1.4.4
Attachements : cover.jpg
DURATION : 02:00:11.413000000
NUMBER_OF_FRAMES : 2601
NUMBER_OF_BYTES : 80239
_STATISTICS_WRITING_APP : mkvmerge v8.8.0 ('Wind at my back') 64bit
_STATISTICS_WRITING_DATE_UT : 2016-02-28 03:29:28
_STATISTICS_TAGS : BPS DURATION NUMBER_OF_FRAMES NUMBER_OF_BYTES
Video
ID : 1
Format : AVC
Format/Info : Advanced Video Codec
Format profile : High@L4.1
Format settings, CABAC : Yes
Format settings, ReFrames : 11 frames
Codec ID : V_MPEG4/ISO/AVC
Duration : 2h 1mn
Bit rate : 4 031 Kbps
Width : 1 002 pixels
Height : 564 pixels
Display aspect ratio : 16:9
Frame rate mode : Constant
Frame rate : 23.976 fps
Color space : YUV
Chroma subsampling : 4:2:0
Bit depth : 8 bits
Scan type : Progressive
Bits/(Pixel*Frame) : 0.297
Stream size : 3.42 GiB (80%)
Title : The Intern by_IVAN@190282
Writing library : x264 core 148 r2638kMod 7599210
Encoding settings : cabac=1 / ref=11 / deblock=1:-3:-2 / analyse=0x3:0x133 / me=umh / subme=11 / psy=1 / fade_compensate=0.00 / psy_rd=1.00:0.05 / mixed_ref=1 / me_range=48 / chroma_me=1 / trellis=2 / 8x8dct=1 / cqm=0 / deadzone=21,11 / fast_pskip=0 / chroma_qp_offset=-3 / threads=6 / lookahead_threads=6 / sliced_threads=0 / nr=0 / decimate=1 / interlaced=0 / bluray_compat=0 / constrained_intra=0 / fgo=0 / bframes=16 / b_pyramid=2 / b_adapt=2 / b_bias=0 / direct=3 / weightb=1 / open_gop=0 / weightp=2 / keyint=240 / keyint_min=23 / scenecut=40 / intra_refresh=0 / rc_lookahead=60 / rc=crf / mbtree=0 / crf=17.0000 / qcomp=0.60 / qpmin=0 / qpmax=69 / qpstep=4 / vbv_maxrate=50000 / vbv_bufsize=62500 / crf_max=0.0 / nal_hrd=none / filler=0 / ip_ratio=1.40 / pb_ratio=1.30 / aq=2:1.10
Language : English
Default : Yes
Forced : No
Color range : Limited
Color primaries : BT.709
Transfer characteristics : BT.709
Matrix coefficients : BT.709
DURATION : 02:01:31.868000000
NUMBER_OF_FRAMES : 174830
NUMBER_OF_BYTES : 3762955273
_STATISTICS_WRITING_APP : mkvmerge v8.8.0 ('Wind at my back') 64bit
_STATISTICS_WRITING_DATE_UT : 2016-02-28 03:29:28
_STATISTICS_TAGS : BPS DURATION NUMBER_OF_FRAMES NUMBER_OF_BYTES
Audio #1
ID : 2
Format : AC-3
Format/Info : Audio Coding 3
Mode extension : CM (complete main)
Format settings, Endianness : Big
Codec ID : A_AC3
Duration : 2h 1mn
Bit rate mode : Constant
Bit rate : 448 Kbps
Channel(s) : 6 channels
Channel positions : Front: L C R, Side: L R, LFE
Sampling rate : 48.0 KHz
Compression mode : Lossy
Stream size : 389 MiB (9%)
Title : Dub BD CEE
Default : Yes
Forced : No
Audio #2
ID : 3
Format : AC-3
Format/Info : Audio Coding 3
Mode extension : CM (complete main)
Format settings, Endianness : Big
Codec ID : A_AC3
Duration : 2h 1mn
Bit rate mode : Constant
Bit rate : 448 Kbps
Channel(s) : 6 channels
Channel positions : Front: L C R, Side: L R, LFE
Sampling rate : 48.0 KHz
Compression mode : Lossy
Stream size : 389 MiB (9%)
Title : Eng
Language : English
Default : No
Forced : No
Text #1
ID : 4
Format : UTF-8
Codec ID : S_TEXT/UTF8
Codec ID/Info : UTF-8 Plain Text
Title : Rus forsed
Default : Yes
Forced : Yes
Text #2
ID : 5
Format : UTF-8
Codec ID : S_TEXT/UTF8
Codec ID/Info : UTF-8 Plain Text
Title : Rus
Default : No
Forced : No
Text #3
ID : 6
Format : UTF-8
Codec ID : S_TEXT/UTF8
Codec ID/Info : UTF-8 Plain Text
Title : Eng
Language : English
Default : No
Forced : No
Menu
00:00:00.000 : en:Chapter 1
00:09:31.153 : en:Chapter 2
00:19:55.360 : en:Chapter 3
00:30:29.953 : en:Chapter 4
00:41:18.434 : en:Chapter 5
00:50:18.682 : en:Chapter 6
01:00:34.047 : en:Chapter 7
01:10:19.048 : en:Chapter 8
01:19:16.460 : en:Chapter 9
01:30:59.912 : en:Chapter 10
01:42:48.495 : en:Chapter 11
01:51:11.206 : en:Chapter 12
01:56:41.995 : en:Chapter 13

x264 log

VIDEO ENCODING
x264 [info]: frame I:1701 Avg QP:15.96 size:103244 PSNR Mean Y:46.50 U:50.38 V:50.03 Avg:47.41 Global:46.84
x264 [info]: frame P:38314 Avg QP:17.52 size: 43152 PSNR Mean Y:44.80 U:49.51 V:48.99 Avg:45.83 Global:44.94
x264 [info]: frame B:134815 Avg QP:19.17 size: 14346 PSNR Mean Y:43.94 U:49.20 V:48.75 Avg:45.04 Global:44.26
x264 [info]: consecutive B-frames: 2.1% 2.7% 7.6% 28.4% 15.1% 28.6% 6.4% 6.5% 1.1% 0.1% 0.2% 0.6% 0.0% 0.1% 0.0% 0.0% 0.2%
x264 [total]: encoded 174830 frames, 6.00 fps, 4128.39 kb/s, duration 8:05:23.78

Скриншот c названием фильма

Скриншоты

Сравнения

Sours by_IVAN@190282
Убедительная просьба пожалуйста кто скачал не бросайте раздачу!!!
 GOLD TORRENT! DOWNLOAD TRAFFIC DOES NOT CONSIDER! 
Torrent: Registered [ 2017-10-10 08:47 ]   · 857EE37DBE8B92DB0A661A88AA0B3D1DC5116EDF

Download .torrent

Download

11 KB

Status: checked
Completed: 0 times
Size: 4.27 GB
Поделиться:
terms.php
[Profile] [PM]
Display posts:    
Reply to topic

Current time is: 27-Nov 11:58

All times are UTC + 3



You cannot post new topics in this forum
You cannot reply to topics in this forum
You cannot edit your posts in this forum
You cannot delete your posts in this forum
You cannot vote in polls in this forum
You cannot attach files in this forum
You can download files in this forum