Час пик 2 / Rush Hour 2 (Бретт Рэтнер / Brett Ratner) [2001, США, Гонконг, Боевик, триллер, комедия, BDRip-AVC] Dub + MVO (Карусель) + AVO (А.Гаврилов) + Sub Rus, Eng + Original Eng

Reply to topic
DL-List and Torrent activity
Size:  3.96 GB   |    Registered:  2 years 11 months   |    Completed:  0 times

Seeder not seen: Never

 
   
 
 
Author Message

admin ®

Gender: Male

Longevity: 2 years 11 months

Posts: 10017

Post 10-Oct-2017 08:30

[Quote]

Час пик 2Rush Hour 2«The Mouth Of The West And The Hands Of The East Are Back!»

Страна: США, Гонконг
Жанр: Боевик, триллер, комедия
Год выпуска: 2001
Продолжительность: 01:30:07
Перевод: Профессиональный (дублированный) BD
Перевод 2: Профессиональный (многоголосый закадровый) Карусель
Перевод 3: Авторский (одноголосый закадровый) А.Гаврилов
Субтитры: русские,английские
Оригинальная аудиодорожка: английский
Режиссер: Бретт Рэтнер / Brett Ratner
В ролях: Джеки Чан, Крис Такер, Джон Лоун, Чжан Цзыи, Роселин Санчес, Алан Кинг, Харрис Юлин, Кеннет Цан, Лиза ЛоЦицеро, Мей Меланкон
Описание: История начинается непосредственно с того момента, на котором закончилась первая часть - полицейские Ли и Картер прибывают в Гонконг по следам преступников, замышляющих похищение китайский сокровищ и продажи их в штатах.
По мере того, как детективы Картер и Ли становятся все больше и больше запутанными в преступном заговоре, вовлекающем их в смертоносную Триаду, поездка в стиле нон-стоп от Гонконга до Лос-Анджелеса и Лас-Вегаса, оборачивается для них безумно интересным, смешным и в то же время опасным приключением.
Полицейские должны использовать все свои навыки, чтобы заманить в ловушку одного из самых опасных преступников в мире...
Доп. информация:
Релиз группы:
Сохранены оригинальные главы как на BD
Качество видео: BDRip-AVC | Час пик 2 / Rush Hour 2 (2001) 1080p BD-Remux| HD club
Формат видео: MKV
Видео: 1080x450 (2:40:1), 23,976 fps, 4393 Кbps, 0.377 bit/pixe
Аудио: 48 kHz, AC3 Dolby Digital, 3/2 (L,C,R,l,r) + LFE ch, ~448.00 kbps avg MVO
Аудио 2: 48 kHz, AC3 Dolby Digital, 3/2 (L,C,R,l,r) + LFE ch, ~448.00 kbps avg MVO отдельно
Аудио 3: 48 kHz, AC3 Dolby Digital, 3/2 (L,C,R,l,r) + LFE ch, ~448.00 kbps avg AVO
отдельно
Аудио 4: 48 kHz, AC3 Dolby Digital, 3/2 (L,C,R,l,r) + LFE ch, ~448.00 kbps avg ENG
Формат субтитров: softsub (SRT)
Доп. информация о субтитрах: отключаемые

Знаете ли Вы что

• Персонаж Ху Ли, роль которой исполняет Чжан Цзыи, изначально задумывался как мужской.
• Сцена, в которой раздетые Крис Такер и Джеки Чан бегут по улицам Гонконга — это реальная съёмка; съёмочная группа не имела возможности перекрыть движение по улице.
• Дон Чидл, который играет Кенни, согласился играть в фильме только в том случае, если он будет драться с Джеки Чаном и говорить по-китайски.
• Ху Ли, в переводе с одного из диалектов китайского языка, означает — Лиса.
• Когда Крис Такер говорит, что азиаты всегда паникуют, ссылаясь при этом на фильм о Годзилле, он кричит: «Хаяку! Хаяку!», что в переводе с японского языка значит «Быстрее! Быстрее!».
• Во время съёмок фильма Чжан Цзыи не владела английским языком и Джеки Чану приходилось исполнять роль переводчика.
• Из фильма были вырезаны следующие сцены:
Картер предлагает Ли освежить дыхание перед тем, как они зайдут в караоке-бар.
Картер разговаривает по телефону с капитаном Диэлем в офисе Ли в гонконгском полицейском участке.
Картер в самолёте громко поет песню Стиви Уандера и бортпроводник просит его прекратить пение.
Более длительная сцена того, как Картер и Ли пытаются избавиться от бомбы: они кидают её в лифт, но женщина, не зная, что это такое, поднимает её.
Также существует альтернативная версия сцены в грузовике по пути в Лас-Вегас: деньги спрятаны в деревянных контейнерах, а Картер и Ли не связаны.

MediaInfo

General
Unique ID : 175718091848034058709204725437767527440 (0x843212CFFBB1FDCF809258A71CD2AC10)
Complete name : E:\Мои рипы\Час пик 2\Rush Hour 2 by_IVAN@190282.mkv
Format : Matroska
Format version : Version 4 / Version 2
File size : 3.40 GiB
Duration : 1h 30mn
Overall bit rate : 5 396 Kbps
Encoded date : UTC 2016-02-28 23:41:08
Writing application : mkvmerge v8.8.0 ('Wind at my back') 64bit
Writing library : libebml v1.3.3 + libmatroska v1.4.4
Attachements : cover.jpg
DURATION : 01:29:14.516000000
NUMBER_OF_FRAMES : 1420
NUMBER_OF_BYTES : 46928
_STATISTICS_WRITING_APP : mkvmerge v8.8.0 ('Wind at my back') 64bit
_STATISTICS_WRITING_DATE_UT : 2016-02-28 23:41:08
_STATISTICS_TAGS : BPS DURATION NUMBER_OF_FRAMES NUMBER_OF_BYTES
Video
ID : 1
Format : AVC
Format/Info : Advanced Video Codec
Format profile : High@L4.1
Format settings, CABAC : Yes
Format settings, ReFrames : 11 frames
Codec ID : V_MPEG4/ISO/AVC
Duration : 1h 30mn
Bit rate : 4 393 Kbps
Width : 1 080 pixels
Height : 450 pixels
Display aspect ratio : 2.40:1
Frame rate mode : Constant
Frame rate : 23.976 fps
Color space : YUV
Chroma subsampling : 4:2:0
Bit depth : 8 bits
Scan type : Progressive
Bits/(Pixel*Frame) : 0.377
Stream size : 2.77 GiB (81%)
Title : Rush Hour 2 by_IVAN@190282
Writing library : x264 core 148 r2638kMod 7599210
Encoding settings : cabac=1 / ref=11 / deblock=1:-3:-2 / analyse=0x3:0x133 / me=umh / subme=11 / psy=1 / fade_compensate=0.00 / psy_rd=1.00:0.05 / mixed_ref=1 / me_range=48 / chroma_me=1 / trellis=2 / 8x8dct=1 / cqm=0 / deadzone=21,11 / fast_pskip=0 / chroma_qp_offset=-3 / threads=6 / lookahead_threads=6 / sliced_threads=0 / nr=0 / decimate=1 / interlaced=0 / bluray_compat=0 / constrained_intra=0 / fgo=0 / bframes=16 / b_pyramid=2 / b_adapt=2 / b_bias=0 / direct=3 / weightb=1 / open_gop=0 / weightp=2 / keyint=240 / keyint_min=23 / scenecut=40 / intra_refresh=0 / rc_lookahead=60 / rc=crf / mbtree=0 / crf=18.2000 / qcomp=0.60 / qpmin=0 / qpmax=69 / qpstep=4 / vbv_maxrate=50000 / vbv_bufsize=62500 / crf_max=0.0 / nal_hrd=none / filler=0 / ip_ratio=1.40 / pb_ratio=1.30 / aq=2:1.10
Language : English
Default : Yes
Forced : No
Color range : Limited
Color primaries : BT.709
Transfer characteristics : BT.709
Matrix coefficients : BT.709
DURATION : 01:30:06.944000000
NUMBER_OF_FRAMES : 129637
NUMBER_OF_BYTES : 3040592785
_STATISTICS_WRITING_APP : mkvmerge v8.8.0 ('Wind at my back') 64bit
_STATISTICS_WRITING_DATE_UT : 2016-02-28 23:41:08
_STATISTICS_TAGS : BPS DURATION NUMBER_OF_FRAMES NUMBER_OF_BYTES
Audio #1
ID : 2
Format : AC-3
Format/Info : Audio Coding 3
Mode extension : CM (complete main)
Format settings, Endianness : Big
Codec ID : A_AC3
Duration : 1h 30mn
Bit rate mode : Constant
Bit rate : 448 Kbps
Channel(s) : 6 channels
Channel positions : Front: L C R, Side: L R, LFE
Sampling rate : 48.0 KHz
Compression mode : Lossy
Stream size : 289 MiB (8%)
Title : Dub
Default : Yes
Forced : No
Audio #2
ID : 3
Format : AC-3
Format/Info : Audio Coding 3
Mode extension : CM (complete main)
Format settings, Endianness : Big
Codec ID : A_AC3
Duration : 1h 30mn
Bit rate mode : Constant
Bit rate : 448 Kbps
Channel(s) : 6 channels
Channel positions : Front: L C R, Side: L R, LFE
Sampling rate : 48.0 KHz
Compression mode : Lossy
Stream size : 289 MiB (8%)
Title : Eng
Language : English
Default : No
Forced : No
Text #1
ID : 4
Format : UTF-8
Codec ID : S_TEXT/UTF8
Codec ID/Info : UTF-8 Plain Text
Title : Rus
Default : No
Forced : No
Text #2
ID : 5
Format : UTF-8
Codec ID : S_TEXT/UTF8
Codec ID/Info : UTF-8 Plain Text
Title : Eng SDH
Language : English
Default : No
Forced : No
Menu
00:00:00.000 : en:Main Titles / Deadly Delivery
00:04:37.235 : en:Triad Club
00:13:30.601 : en:Heaven On Earth
00:21:42.885 : en:"Bigger than Ricky Tan"
00:27:48.834 : en:Out to Sea
00:33:22.918 : en:Tan Overboard
00:38:50.245 : en:Follow the Rich White Man
00:47:11.078 : en:Crenshaw Kitchen
00:51:18.117 : en:Road Trip
00:58:56.241 : en:Red Dragon
01:03:52.037 : en:"Let's Play Some Craps!"
01:08:59.093 : en:An Explosive Situation
01:14:51.570 : en:Carter v. Hu Li
01:17:29.603 : en:"Just Like Your Father"
01:22:03.335 : en:Goodbye?
01:24:38.115 : en:Outtakes / End Credits

x264 log

x264 [info]: frame I:990 Avg QP:16.10 size: 85602 PSNR Mean Y:44.84 U:46.69 V:48.50 Avg:45.55 Global:44.98
x264 [info]: frame P:31301 Avg QP:18.81 size: 40636 PSNR Mean Y:43.37 U:45.39 V:47.85 Avg:44.16 Global:43.46
x264 [info]: frame B:97346 Avg QP:19.67 size: 17298 PSNR Mean Y:42.20 U:44.29 V:47.61 Avg:43.05 Global:42.38
x264 [info]: consecutive B-frames: 2.8% 4.4% 9.4% 31.3% 17.4% 25.6% 4.6% 2.6% 0.8% 0.3% 0.2% 0.2% 0.1% 0.0% 0.0% 0.1% 0.1%
x264 [total]: encoded 129637 frames, 6.69 fps, 4498.80 kb/s, duration 5:22:52.22

Скриншот c названием фильма

Скриншоты

Убедительная просьба пожалуйста кто скачал не бросайте раздачу!!!
 GOLD TORRENT! DOWNLOAD TRAFFIC DOES NOT CONSIDER! 
Torrent: Registered [ 2017-10-10 08:30 ]   · 2449C015CDB0898B62E00D98D89604C2711B3E89

Download .torrent

Download

21 KB

Status: checked
Completed: 0 times
Size: 3.96 GB
Поделиться:
terms.php
[Profile] [PM]
Display posts:    
Reply to topic

Current time is: 26-Sep 08:26

All times are UTC + 3



You cannot post new topics in this forum
You cannot reply to topics in this forum
You cannot edit your posts in this forum
You cannot delete your posts in this forum
You cannot vote in polls in this forum
You cannot attach files in this forum
You can download files in this forum