Подводная эра / Deep (Джулио Сото Гарпид / Julio Soto Gurpide) [2017, США, Испания, Бельгия, мультфильм, комедия, приключения, семейный, WEB-DL 1080p] 2x Dub (Rus, Ukr)

Reply to topic
DL-List and Torrent activity
Size:  3.64 GB   |    Registered:  2 years 11 months   |    Completed:  1 time
Seeders:  204  [  0 KB/s  ]   Leechers:  6  [  0 KB/s  ]   Show peers in full details
 
   
 
 
Author Message

admin ®

Gender: Male

Longevity: 3 years

Posts: 10018

Post 02-Oct-2017 04:05

[Quote]

Подводная эраDeep
Страна: США, Испания, Бельгия
Студия: The Thinklab, Kraken Films, The, Umedia
Жанр: мультфильм, комедия, приключения, семейный
Продолжительность: 01:28:24
Год выпуска: 2017-Перевод 1: Профессиональный (дублированный) русский
Перевод 2: Профессиональный (дублированный) украинский
Субтитры: нет
Оригинальная аудиодорожка: нет
Режиссёр: Джулио Сото Гарпид / Julio Soto Gurpide
Роли озвучивали: Джастин Фелбингер, Линдси Алена, Стивен Хьюз, Льюис Маклауд, Джесс Харнелл, Фил ЛаМарр, Джефф Беннетт, Дэйв Фенной, Боб Берген, Джен Тейлор-Описание: Сюжет мультфильма развивается в далеком будущем, когда в результате глобальной экологической катастрофы, случившейся по вине человека, вся Земля ушла под воду. Катастрофа сказалась и на обитателях морских глубин. Кракену - разумному осьминогу-гримпотевтису удалось спастись самому и спасти некоторых обитателей. Найдя безопасное место, и, укрывшись там, они смогли выжить. И все было бы ничего, если бы главные герои - молодой осьминог Дип - внук Кракена и его друзья - рыба-удильщик Иво и креветка Эллис своими шалостями не подвергли смертельной опасности жителей этого места, всех их просто замуровало. И, кажется, спасения ждать неоткуда, но мудрый Кракен знает, что у них остался один шанс. Вся их надежда на белого кита Нейтана, способного помочь. Теперь компания нашкодивших друзей должна отправиться на поиски Нейтана, следуя ориентирам, полученным от Кракена.

Качество: WEB-DL 1080p iTunes
Формат: MKV
Видео: MPEG-4 AVC / PAL 16:9 / 1920x1038 (1,85:1) / 5127 kbps / 25,000 fps / 0.103 bit/pixel / High@L4
Аудио 1: Russian | Dolby Digital Audio / 5.1 Ch / 48 kHz / 384 kbps / 16-bit | DUB
Аудио 2: Ukrainian | Dolby Digital Audio / 5.1 Ch / 48 kHz / 384 kbps / 16-bit | DUB
Навигация по главам: есть

Примечание

Куплено в iTunes на личные средства.

Подробные технические данные

Общее
Уникальный идентификатор                 : 183833984092869186168009116946514346455 (0x8A4D2331A153143BADB6B061054C81D7)
Полное имя                               : N:\WEB-DL 1080p\Подводная эра.2017.1080p.WEB-DL.x264.2xDUB.DD.5.1.mkv
Формат                                   : Matroska
Версия формата                           : Version 4 / Version 2
Размер файла                             : 3,64 Гбайт
Продолжительность                        : 1 ч. 28 м.
Общий поток                              : 5897 Кбит/сек
Дата кодирования                         : UTC 2017-09-03 10:10:48
Программа кодирования                    : mkvmerge v15.0.0 ('Duel with the Devil') 64-bit
Библиотека кодирования                   : libebml v1.3.5 + libmatroska v1.4.5
Видео
Идентификатор                            : 1
Формат                                   : AVC
Формат/Информация                        : Advanced Video Codec
Профиль формата                          : High@L4
Параметр CABAC формата                   : Да
Параметр RefFrames формата               : 4 кадра
Идентификатор кодека                     : V_MPEG4/ISO/AVC
Продолжительность                        : 1 ч. 28 м.
Битрейт                                  : 5127 Кбит/сек
Ширина                                   : 1920 пикселей
Высота                                   : 1038 пикселей
Соотношение сторон                       : 1,85:1
Режим частоты кадров                     : Постоянный
Частота кадров                           : 25,000 кадров/сек
Цветовое пространство                    : YUV
Субдискретизация насыщенности            : 4:2:0
Битовая глубина                          : 8 бит
Тип развёртки                            : Прогрессивная
Бит/(Пиксели*Кадры)                      : 0.103
Размер потока                            : 3,17 Гбайт (87%)
Заголовок                                : iTunes
Язык                                     : English
Default                                  : Да
Forced                                   : Нет
Цветовой диапазон                        : Limited
Основные цвета                           : BT.709
Характеристики трансфера                 : BT.709
Коэффициенты матрицы                     : BT.709
Аудио #1
Идентификатор                            : 2
Формат                                   : AC-3
Формат/Информация                        : Audio Coding 3
Параметр Endianness формата              : Big
Идентификатор кодека                     : A_AC3
Продолжительность                        : 1 ч. 28 м.
Вид битрейта                             : Постоянный
Битрейт                                  : 384 Кбит/сек
Каналы                                   : 6 каналов
Расположение каналов                     : Front: L C R, Side: L R, LFE
Частота                                  : 48,0 КГц
Частота кадров                           : 31,250 кадров/сек (1536 SPF)
Битовая глубина                          : 16 бит
Метод сжатия                             : С потерями
Размер потока                            : 243 Мбайт (7%)
Заголовок                                : DUB
Язык                                     : Russian
ServiceKind/String                       : Complete Main
Default                                  : Да
Forced                                   : Нет
Аудио #2
Идентификатор                            : 3
Формат                                   : AC-3
Формат/Информация                        : Audio Coding 3
Параметр Endianness формата              : Big
Идентификатор кодека                     : A_AC3
Продолжительность                        : 1 ч. 28 м.
Вид битрейта                             : Постоянный
Битрейт                                  : 384 Кбит/сек
Каналы                                   : 6 каналов
Расположение каналов                     : Front: L C R, Side: L R, LFE
Частота                                  : 48,0 КГц
Частота кадров                           : 31,250 кадров/сек (1536 SPF)
Битовая глубина                          : 16 бит
Метод сжатия                             : С потерями
Размер потока                            : 243 Мбайт (7%)
Заголовок                                : DUB
Язык                                     : Ukrainian
ServiceKind/String                       : Complete Main
Default                                  : Нет
Forced                                   : Нет
Меню
00:00:00.000                             : en:Глава 1
00:05:41.880                             : en:Глава 2
00:11:01.120                             : en:Глава 3
00:18:19.840                             : en:Глава 4
00:27:12.000                             : en:Глава 5
00:31:56.520                             : en:Глава 6
00:38:11.720                             : en:Глава 7
00:44:39.840                             : en:Глава 8
00:49:54.080                             : en:Глава 9
00:56:12.320                             : en:Глава 10
01:02:46.080                             : en:Глава 11
01:08:17.120                             : en:Глава 12
01:14:39.920                             : en:Глава 13

Скриншоты

-


 GOLD TORRENT! DOWNLOAD TRAFFIC DOES NOT CONSIDER! 
Torrent: Registered [ 2017-10-02 04:05 ]   · 2B15C228AE029C600871F9513813BAAFDABA3C05

Download .torrent

Download

19 KB

Status: checked
Completed: 1 times
Size: 3.64 GB
Поделиться:
terms.php
[Profile] [PM]
Display posts:    
Reply to topic

Current time is: 30-Sep 05:53

All times are UTC + 3



You cannot post new topics in this forum
You cannot reply to topics in this forum
You cannot edit your posts in this forum
You cannot delete your posts in this forum
You cannot vote in polls in this forum
You cannot attach files in this forum
You can download files in this forum