Прогулка среди могил / A Walk Among the Tombstones (Скотт Фрэнк / Scott Frank) [2014, США, Боевик, триллер, криминал, детектив, BDRip-AVC] AVO + Sub Eng + Original Eng

Reply to topic
DL-List and Torrent activity
Size:  2.64 GB   |    Registered:  2 years 11 months   |    Completed:  0 times

Seeder not seen: Never

 
   
 
 
Author Message

admin ®

Gender: Male

Longevity: 3 years

Posts: 10017

Post 10-Oct-2017 07:07

[Quote]

Прогулка среди могилA Walk Among the Tombstones«Люди боятся не того, чего стоит бояться»

Страна: США
Жанр: Боевик, триллер, криминал, детектив
Год выпуска: 2014
Продолжительность: 01:53:41
Перевод: Авторский (одноголосый закадровый) А.Гаврилов
Субтитры: английские
Оригинальная аудиодорожка: английский
Режиссер: Скотт Фрэнк / Scott Frank
В ролях: Лиам Нисон, Дэн Стивенс, Дэвид Харбор, Бойд Холбрук, Себастьян Роше, Астро, Уитни Эйбл, Стефани Андужар, Марина Скверсьяти, Марк Консуэлос, Ким Розен, Разан Джаммаль, Стефани Андухар.
Описание: Нью-Йорк охватывает волна странных и страшных убийств. Муж одной из жертв, наркобарон, нанимает бывшего полицейского, чтобы тот добрался до убийцы жены. Частный детектив Скаддер видит то, чего не замечает полиция, и проникает туда, куда копы боятся даже сунуть нос. Распутывая дьявольские преступления, он понимает, что люди боятся совсем не того.
Доп. информация:
Релиз группы:
Сохранены оригинальные главы как на BD
Качество видео: BDRip-AVC | Прогулка среди могил / A Walk Among the Tombstones (2015) 1080p BD-Remux| Kinozal
Формат видео: MKV
Видео: 1148x482 (2:40:1), 23,976 fps, 2360 Кbps, 0.178 bit/pixe
Аудио: 48 kHz, AC3 Dolby Digital, 3/2 (L,C,R,l,r) + LFE ch, ~448.00 kbps avg AVO
Аудио 2: 48 kHz, AC3 Dolby Digital, 3/2 (L,C,R,l,r) + LFE ch, ~448.00 kbps avg ENG
Формат субтитров: softsub (SRT)
Доп. информация о субтитрах: отключаемые

Знаете ли Вы что

Фильм является экранизацией одноимённого романа Лоренса Блока.
Майкл Илума рассматривался на роль ТиДжея.
Это второе появление на экране персонажа Мэтта Скаддера. Впервые его сыграл Джефф Бриджес в фильме «8 миллионов способов умереть» (1986).
Ранее к проекту привлекался режиссер Ди Джей Карузо.
Изначально предполагалось, что режиссером фильма станет Джо Карнахан. И в то же время главная роль была закреплена за Харрисоном Фордом.
Рут Уилсон была взята на роль Джо Даркин (в книге этот персонаж мужчина), и по сюжету она являлась напарницей Лиама Нисона. Но в итоге режиссер посчитал, что персонаж Нисона должен быть одиночкой, и все сцены с участием Уилсон были вырезаны.
Благодаря популярности Лиама Нисона и успехам его прошлых кинохитов картина окупилась еще до выхода на экраны одними только продажами на кинорынках для проката по всему свету.

Ошибки в фильме

Во время боя в подвале стол ломается до того, как по нему бьют. Также, когда Скаддер подбирает ножку стола, можно заметить, что край ножки ровный, а не с зазубринами, как должен быть, поскольку ножку выломали.

MediaInfo

General
Unique ID : 177228532421372329818410732875544499313 (0x8554F9484548E38CA6CC7BF43D8F9471)
Complete name : D:\Мои рипы\Прогулка среди могил\A Walk Among the Tombstones by_IVAN@190282.mkv
Format : Matroska
Format version : Version 4 / Version 2
File size : 2.64 GiB
Duration : 1h 53mn
Overall bit rate : 3 322 Kbps
Movie name : A Walk Among the Tombstones by_IVAN@190282
Encoded date : UTC 2016-03-14 16:14:48
Writing application : mkvmerge v8.8.0 ('Wind at my back') 64bit
Writing library : libebml v1.3.3 + libmatroska v1.4.4
Attachements : cover.png
DURATION : 01:53:04.361000000
NUMBER_OF_FRAMES : 1327
NUMBER_OF_BYTES : 50153
_STATISTICS_WRITING_APP : mkvmerge v8.8.0 ('Wind at my back') 64bit
_STATISTICS_WRITING_DATE_UT : 2016-03-14 16:14:48
_STATISTICS_TAGS : BPS DURATION NUMBER_OF_FRAMES NUMBER_OF_BYTES
Video
ID : 1
Format : AVC
Format/Info : Advanced Video Codec
Format profile : High@L4.1
Format settings, CABAC : Yes
Format settings, ReFrames : 11 frames
Codec ID : V_MPEG4/ISO/AVC
Duration : 1h 53mn
Bit rate : 2 360 Kbps
Width : 1 148 pixels
Height : 482 pixels
Display aspect ratio : 2.40:1
Frame rate mode : Constant
Frame rate : 23.976 fps
Color space : YUV
Chroma subsampling : 4:2:0
Bit depth : 8 bits
Scan type : Progressive
Bits/(Pixel*Frame) : 0.178
Stream size : 1.87 GiB (71%)
Title : A Walk Among the Tombstones by_IVAN@190282
Writing library : x264 core 148 r2638kMod 7599210
Encoding settings : cabac=1 / ref=11 / deblock=1:-3:-2 / analyse=0x3:0x133 / me=umh / subme=11 / psy=1 / fade_compensate=0.00 / psy_rd=1.00:0.05 / mixed_ref=1 / me_range=48 / chroma_me=1 / trellis=2 / 8x8dct=1 / cqm=0 / deadzone=21,11 / fast_pskip=0 / chroma_qp_offset=-3 / threads=6 / lookahead_threads=6 / sliced_threads=0 / nr=0 / decimate=1 / interlaced=0 / bluray_compat=0 / constrained_intra=0 / fgo=0 / bframes=16 / b_pyramid=2 / b_adapt=2 / b_bias=0 / direct=3 / weightb=1 / open_gop=0 / weightp=2 / keyint=240 / keyint_min=23 / scenecut=40 / intra_refresh=0 / rc_lookahead=60 / rc=crf / mbtree=0 / crf=17.0000 / qcomp=0.60 / qpmin=0 / qpmax=69 / qpstep=4 / vbv_maxrate=50000 / vbv_bufsize=62500 / crf_max=0.0 / nal_hrd=none / filler=0 / ip_ratio=1.40 / pb_ratio=1.30 / aq=2:1.10
Language : English
Default : Yes
Forced : No
Color range : Limited
Color primaries : BT.709
Transfer characteristics : BT.709
Matrix coefficients : BT.709
DURATION : 01:53:40.439000000
NUMBER_OF_FRAMES : 163527
NUMBER_OF_BYTES : 2066564716
_STATISTICS_WRITING_APP : mkvmerge v8.8.0 ('Wind at my back') 64bit
_STATISTICS_WRITING_DATE_UT : 2016-03-14 16:14:48
_STATISTICS_TAGS : BPS DURATION NUMBER_OF_FRAMES NUMBER_OF_BYTES
Audio #1
ID : 2
Format : AC-3
Format/Info : Audio Coding 3
Mode extension : CM (complete main)
Format settings, Endianness : Big
Codec ID : A_AC3
Duration : 1h 53mn
Bit rate mode : Constant
Bit rate : 448 Kbps
Channel(s) : 6 channels
Channel positions : Front: L C R, Side: L R, LFE
Sampling rate : 48.0 KHz
Compression mode : Lossy
Stream size : 364 MiB (13%)
Title : A.Gavrilov
Default : Yes
Forced : No
Audio #2
ID : 3
Format : AC-3
Format/Info : Audio Coding 3
Mode extension : CM (complete main)
Format settings, Endianness : Big
Codec ID : A_AC3
Duration : 1h 53mn
Bit rate mode : Constant
Bit rate : 448 Kbps
Channel(s) : 6 channels
Channel positions : Front: L C R, Side: L R, LFE
Sampling rate : 48.0 KHz
Compression mode : Lossy
Stream size : 364 MiB (13%)
Title : Eng
Language : English
Default : No
Forced : No
Text
ID : 4
Format : UTF-8
Codec ID : S_TEXT/UTF8
Codec ID/Info : UTF-8 Plain Text
Title : Eng
Language : English
Default : No
Forced : No
Menu
00:00:00.000 : en:Chapter 1
00:06:05.698 : en:Chapter 2
00:12:23.783 : en:Chapter 3
00:19:49.939 : en:Chapter 4
00:25:04.586 : en:Chapter 5
00:31:19.586 : en:Chapter 6
00:37:34.335 : en:Chapter 7
00:42:39.890 : en:Chapter 8
00:48:59.268 : en:Chapter 9
00:55:30.661 : en:Chapter 10
01:02:32.747 : en:Chapter 11
01:07:45.227 : en:Chapter 12
01:12:31.513 : en:Chapter 13
01:16:50.189 : en:Chapter 14
01:24:01.243 : en:Chapter 15
01:28:31.264 : en:Chapter 16
01:35:01.529 : en:Chapter 17
01:39:32.255 : en:Chapter 18
01:44:18.920 : en:Chapter 19
01:50:10.938 : en:Chapter 20

x264 log

VIDEO ENCODING
x264 [info]: frame I:1186 Avg QP:14.54 size: 73826 PSNR Mean Y:49.76 U:54.10 V:54.53 Avg:50.72 Global:49.85
x264 [info]: frame P:31536 Avg QP:15.77 size: 26941 PSNR Mean Y:48.14 U:53.97 V:54.32 Avg:49.18 Global:48.13
x264 [info]: frame B:130805 Avg QP:17.25 size: 8634 PSNR Mean Y:47.42 U:53.03 V:53.48 Avg:48.51 Global:47.53
x264 [info]: consecutive B-frames: 1.8% 1.8% 7.5% 9.8% 13.8% 42.3% 7.7% 3.0% 3.8% 1.7% 1.8% 1.4% 1.4% 1.0% 0.5% 0.1% 0.6%
x264 [total]: encoded 163527 frames, 7.91 fps, 2423.97 kb/s, duration 5:44:24.94

Скриншот c названием фильма

Скриншоты

Убедительная просьба пожалуйста кто скачал не бросайте раздачу!!!
 GOLD TORRENT! DOWNLOAD TRAFFIC DOES NOT CONSIDER! 
Torrent: Registered [ 2017-10-10 07:07 ]   · CA7013B39A5A9D37B911D3EC944FBD074B13CDDB

Download .torrent

Download

14 KB

Status: checked
Completed: 0 times
Size: 2.64 GB
Поделиться:
terms.php
[Profile] [PM]
Display posts:    
Reply to topic

Current time is: 28-Sep 07:57

All times are UTC + 3



You cannot post new topics in this forum
You cannot reply to topics in this forum
You cannot edit your posts in this forum
You cannot delete your posts in this forum
You cannot vote in polls in this forum
You cannot attach files in this forum
You can download files in this forum