Поклонник / The Boy Next Door (Роб Коэн / Rob Cohen) [2015, США, триллер, BDRip-AVC] Dub + Sub Rus, Eng + Original Eng

Reply to topic
DL-List and Torrent activity
Size:  3.35 GB   |    Registered:  3 months 23 days   |    Completed:  0 times

Seeder not seen: Never

 
   
 
 
Author Message

admin ®

Gender: Male

Longevity: 3 years

Posts: 10018

Post 10-Oct-2017 06:07

[Quote]

ПоклонникThe Boy Next Door«A moment she couldn't resist, an obsession he can't control»

Страна: США
Студия: «Двадцатый Век Фокс »
Жанр: Триллер
Год выпуска: 2015
Продолжительность: 01:30:33
Перевод: Профессиональный (дублированный) Blu-ray CEE
Субтитры: русские,английские
Оригинальная аудиодорожка: английский
Режиссер: Роб Коэн / Rob Cohen
В ролях: Дженнифер Лопез, Райан Гузман, Йен Нельсон, Джон Корбетт, Кристин Ченоуэт, Лекси Аткинс, Хилл Харпер, Джек Уоллес, Адам Хикс, Франсуа Чау
Описание: Фильм рассказывает об учительнице литературы Клэр Петерсон. Клэр знает о том, что муж изменяет ей, но тянет с разводом.
Однажды, в дом по соседству въезжает харизматичный 19-летний красавчик Ной, который начинает оказывать Клэр повышенное внимание. Поддавшись слабости, Клэр проводит с ним ночь. Но она и не подозревала, что в скором времени влечение Ноя к ней перерастет в опасную одержимость…
Доп. информация:
Релиз группы:
Сохранены оригинальные главы как на Bluray
Качество видео: BDRip-AVC Blu-ray CEE
Формат видео: MKV
Видео: 1152x480 (2:40:1), 23,976 fps, 4294 Кbps, 0.324 bit/pixe
Аудио: 48 kHz, AC3 Dolby Digital, 3/2 (L,C,R,l,r) + LFE ch, ~448.00 kbps avg DUB
Аудио 2: 48 kHz, AC3 Dolby Digital, 3/2 (L,C,R,l,r) + LFE ch, ~448.00 kbps avg ENG
Формат субтитров: softsub (SRT)
Доп. информация о субтитрах: отключаемые

MediaInfo

General
Unique ID : 171858850301304530101432410245465487294 (0x814ACF8380BC2A7EB4B888242FE9B7BE)
Complete name : E:\Мои рипы\Поклонник\The Boy Next Door by_IVAN@190282.mkv
Format : Matroska
Format version : Version 4 / Version 2
File size : 3.35 GiB
Duration : 1h 30mn
Overall bit rate : 5 296 Kbps
Movie name : The Boy Next Door by_IVAN@190282
Encoded date : UTC 2016-03-05 14:46:13
Writing application : mkvmerge v8.8.0 ('Wind at my back') 64bit
Writing library : libebml v1.3.3 + libmatroska v1.4.4
Attachements : cover.jpg
DURATION : 01:23:42.684000000
NUMBER_OF_FRAMES : 1493
NUMBER_OF_BYTES : 40911
_STATISTICS_WRITING_APP : mkvmerge v8.8.0 ('Wind at my back') 64bit
_STATISTICS_WRITING_DATE_UT : 2016-03-05 14:46:13
_STATISTICS_TAGS : BPS DURATION NUMBER_OF_FRAMES NUMBER_OF_BYTES
Video
ID : 1
Format : AVC
Format/Info : Advanced Video Codec
Format profile : High@L4.1
Format settings, CABAC : Yes
Format settings, ReFrames : 14 frames
Codec ID : V_MPEG4/ISO/AVC
Duration : 1h 30mn
Bit rate : 4 294 Kbps
Width : 1 152 pixels
Height : 480 pixels
Display aspect ratio : 2.40:1
Frame rate mode : Constant
Frame rate : 23.976 fps
Color space : YUV
Chroma subsampling : 4:2:0
Bit depth : 8 bits
Scan type : Progressive
Bits/(Pixel*Frame) : 0.324
Stream size : 2.72 GiB (81%)
Title : The Boy Next Door by_IVAN@190282
Writing library : x264 core 146 r2538kMod 121396c
Encoding settings : cabac=1 / ref=14 / deblock=1:-3:-2 / analyse=0x3:0x133 / me=umh / subme=11 / psy=1 / fade_compensate=0.00 / psy_rd=1.00:0.05 / mixed_ref=1 / me_range=48 / chroma_me=1 / trellis=2 / 8x8dct=1 / cqm=0 / deadzone=21,11 / fast_pskip=0 / chroma_qp_offset=-3 / threads=6 / lookahead_threads=6 / sliced_threads=0 / nr=0 / decimate=1 / interlaced=0 / bluray_compat=0 / constrained_intra=0 / fgo=0 / bframes=16 / b_pyramid=2 / b_adapt=2 / b_bias=0 / direct=3 / weightb=1 / open_gop=0 / weightp=2 / keyint=240 / keyint_min=23 / scenecut=40 / intra_refresh=0 / rc_lookahead=60 / rc=crf / mbtree=0 / crf=19.2000 / qcomp=0.60 / qpmin=0 / qpmax=69 / qpstep=4 / vbv_maxrate=50000 / vbv_bufsize=62500 / crf_max=0.0 / nal_hrd=none / filler=0 / ip_ratio=1.40 / pb_ratio=1.30 / aq=2:1.80
Language : English
Default : Yes
Forced : No
Color range : Limited
Color primaries : BT.709
Transfer characteristics : BT.709
Matrix coefficients : BT.709
DURATION : 01:30:33.845000000
NUMBER_OF_FRAMES : 130282
NUMBER_OF_BYTES : 2986577313
_STATISTICS_WRITING_APP : mkvmerge v8.8.0 ('Wind at my back') 64bit
_STATISTICS_WRITING_DATE_UT : 2016-03-05 14:46:13
_STATISTICS_TAGS : BPS DURATION NUMBER_OF_FRAMES NUMBER_OF_BYTES
Audio #1
ID : 2
Format : AC-3
Format/Info : Audio Coding 3
Mode extension : CM (complete main)
Format settings, Endianness : Big
Codec ID : A_AC3
Duration : 1h 30mn
Bit rate mode : Constant
Bit rate : 448 Kbps
Channel(s) : 6 channels
Channel positions : Front: L C R, Side: L R, LFE
Sampling rate : 48.0 KHz
Compression mode : Lossy
Stream size : 290 MiB (8%)
Title : Dub CEE
Language : Russian
Default : Yes
Forced : No
Audio #2
ID : 3
Format : AC-3
Format/Info : Audio Coding 3
Mode extension : CM (complete main)
Format settings, Endianness : Big
Codec ID : A_AC3
Duration : 1h 30mn
Bit rate mode : Constant
Bit rate : 448 Kbps
Channel(s) : 6 channels
Channel positions : Front: L C R, Side: L R, LFE
Sampling rate : 48.0 KHz
Compression mode : Lossy
Stream size : 290 MiB (8%)
Title : Eng
Language : English
Default : No
Forced : No
Text #1
ID : 4
Format : UTF-8
Codec ID : S_TEXT/UTF8
Codec ID/Info : UTF-8 Plain Text
Title : Rus.forsed
Language : Russian
Default : Yes
Forced : No
Text #2
ID : 5
Format : UTF-8
Codec ID : S_TEXT/UTF8
Codec ID/Info : UTF-8 Plain Text
Title : Rus
Language : Russian
Default : No
Forced : No
Text #3
ID : 6
Format : UTF-8
Codec ID : S_TEXT/UTF8
Codec ID/Info : UTF-8 Plain Text
Title : Eng
Language : English
Default : No
Forced : No
Menu
00:00:00.000 : en:Chapter 1
00:04:29.769 : en:Chapter 2
00:10:39.930 : en:Chapter 3
00:15:32.890 : en:Chapter 4
00:20:31.021 : en:Chapter 5
00:24:41.730 : en:Chapter 6
00:26:53.570 : en:Chapter 7
00:30:49.681 : en:Chapter 8
00:35:51.440 : en:Chapter 9
00:40:20.626 : en:Chapter 10
00:45:47.369 : en:Chapter 11
00:49:24.795 : en:Chapter 12
00:53:28.955 : en:Chapter 13
00:56:43.650 : en:Chapter 14
01:00:45.850 : en:Chapter 15
01:03:44.987 : en:Chapter 16
01:09:31.041 : en:Chapter 17
01:14:06.608 : en:Chapter 18
01:19:50.952 : en:Chapter 19
01:24:33.526 : en:Chapter 20

x264 log

VIDEO ENCODING
x264 [info]: frame I:964 Avg QP:16.55 size: 87814 PSNR Mean Y:45.66 U:48.55 V:48.34 Avg:46.37 Global:45.35
x264 [info]: frame P:29872 Avg QP:17.20 size: 41009 PSNR Mean Y:45.09 U:48.30 V:47.98 Avg:45.82 Global:44.88
x264 [info]: frame B:99446 Avg QP:18.71 size: 16863 PSNR Mean Y:44.12 U:47.57 V:47.10 Avg:44.82 Global:43.95
x264 [info]: consecutive B-frames: 3.1% 3.7% 12.0% 13.2% 14.7% 44.3% 3.9% 2.6% 0.7% 0.5% 0.5% 0.3% 0.2% 0.1% 0.0% 0.1% 0.2%
x264 [total]: encoded 130282 frames, 4.97 fps, 4397.00 kb/s, duration 7:16:54.36

Знаете ли Вы что

• Фильм был снят всего за 25 дней.
• В сексуальных сценах Дженнифер Лопез снималась сама.

Ошибки в фильме

• Райан дает Клэр «Илиаду». Клэр говорит, что это первое издание, которое должно стоить целое состояние. Райан шутит, что она стоила доллар на гаражной распродаже. Клэр, будучи учителем классической литературы, должна знать, что «Илиада», поэма, приписываемая Гомеру, передавалась из уст в уста. Самая древняя и наиболее полная рукопись с этой поэмой датируется 10-м веком. «Первое издание», которое дает ей Райан, в твердом переплете и на английском языке.
• Во время сцены поездки Кевина и его отца, ремни безопасности то появляются, то исчезают. Когда камера показывает машину снаружи — ремни безопасности видны, когда изнутри машины — нет.

Скриншот с названием фильма

Скриншоты

Убедительная просьба пожалуйста кто скачал не бросайте раздачу!!!
 GOLD TORRENT! DOWNLOAD TRAFFIC DOES NOT CONSIDER! 
Torrent: Registered [ 2020-06-06 06:43 ]   · FCAA4700D66D57B3217A624C1408D747AB4C61C8

Download .torrent

Download

17 KB

Status: checked
Completed: 0 times
Size: 3.35 GB
Поделиться:
terms.php
[Profile] [PM]
Display posts:    
Reply to topic

Current time is: 30-Sep 06:03

All times are UTC + 3



You cannot post new topics in this forum
You cannot reply to topics in this forum
You cannot edit your posts in this forum
You cannot delete your posts in this forum
You cannot vote in polls in this forum
You cannot attach files in this forum
You can download files in this forum