Великая стена / The Great Wall (Чжан Имоу / Zhang Yimou) [2016, США, Китай, Гонконг, Австралия, Канада, Фэнтези, боевик, триллер, приключения, BDRip-AVC] Dub + Sub Rus, Eng + Original Eng

Reply to topic
DL-List and Torrent activity
Size:  3.63 GB   |    Registered:  3 years 1 month   |    Completed:  0 times

Seeder not seen: Never

Leechers:  3  [  0 KB/s  ]   Show peers in full details
 
   
 
 
Author Message

admin ®

Gender: Male

Longevity: 3 years 2 months

Posts: 10115

Post 02-Oct-2017 03:47

[Quote]

Великая стенаThe Great Wall«1700 лет ушло на строительство. 8851 км неприступных стен. Какой враг угрожал империи?»

Страна: США, Китай, Гонконг, Австралия, Канада
Жанр: Фэнтези, боевик, триллер, приключения
Год выпуска: 2016
Продолжительность: 01:43:03
Перевод: Профессиональный (дублированный) Bluray CEE
Субтитры: русские форсированные,русские полные,английские
Оригинальная аудиодорожка: английский
Режиссер: Чжан Имоу / Zhang Yimou
В ролях: Мэтт Дэймон, Цзин Тянь, Уиллем Дефо, Энди Лау, Педро Паскаль, Чжан Ханьюй, Лухан, Кенни Линь, Эдди Пэн, Хуан Сюань
Описание: Великую стену воздвигли, чтобы оградить Поднебесную от любых угроз, но с таким врагом не сталкивались даже самые отважные ее защитники. Если вторжение не остановить — мир будет уничтожен.
Доп. информация:
Релиз группы:
Качество видео: BDRip-AVC | THE_GREAT_WALL_ BLURAY CEE_HDCLUB|
Формат видео: MKV
Видео: 1152x484 (2:40:1), 23,976 fps, 4046 Кbps, 0.303 bit/pixe
Аудио: 48 kHz, AC3 Dolby Digital, 3/2 (L,C,R,l,r) + LFE ch, ~448.00 kbps avg DUB
Аудио 2: 48 kHz, AC3 Dolby Digital, 3/2 (L,C,R,l,r) + LFE ch, ~448.00 kbps avg ENG
Формат субтитров: softsub (SRT)

MediaInfo

General
Unique ID : 238099406782576467209052339482900885207 (0xB320471912CC1D4994D15312B48CEED7)
Complete name : E:\Мои рипы\Великая стена\The Great Wall by_IVAN@190282.mkv
Format : Matroska
Format version : Version 4 / Version 2
File size : 3.63 GiB
Duration : 1h 43mn
Overall bit rate : 5 042 Kbps
Movie name : The Great Wall by_IVAN@190282
Encoded date : UTC 2017-05-22 20:53:55
Writing application : mkvmerge v12.0.0 ('Trust / Lust') 64bit
Writing library : libebml v1.3.4 + libmatroska v1.4.5
DURATION : 01:30:17.327000000
NUMBER_OF_FRAMES : 1120
NUMBER_OF_BYTES : 27520
_STATISTICS_WRITING_APP : mkvmerge v12.0.0 ('Trust / Lust') 64bit
_STATISTICS_WRITING_DATE_UTC : 2017-05-22 20:53:55
_STATISTICS_TAGS : BPS DURATION NUMBER_OF_FRAMES NUMBER_OF_BYTES
Attachment : Yes
Video
ID : 1
Format : AVC
Format/Info : Advanced Video Codec
Format profile : High@L4.1
Format settings, CABAC : Yes
Format settings, ReFrames : 11 frames
Codec ID : V_MPEG4/ISO/AVC
Duration : 1h 43mn
Bit rate : 4 046 Kbps
Width : 1 152 pixels
Height : 484 pixels
Display aspect ratio : 2.40:1
Frame rate mode : Constant
Frame rate : 23.976 fps
Color space : YUV
Chroma subsampling : 4:2:0
Bit depth : 8 bits
Scan type : Progressive
Bits/(Pixel*Frame) : 0.303
Stream size : 2.91 GiB (80%)
Title : The Great Wall by_IVAN@190282
Writing library : x264 core 148 r2762 90a61ec
Encoding settings : cabac=1 / ref=11 / deblock=1:-3:-3 / analyse=0x3:0x113 / me=umh / subme=11 / psy=1 / psy_rd=1.00:0.05 / mixed_ref=1 / me_range=48 / chroma_me=1 / trellis=2 / 8x8dct=1 / cqm=0 / deadzone=21,11 / fast_pskip=0 / chroma_qp_offset=-3 / threads=6 / lookahead_threads=6 / sliced_threads=0 / nr=0 / decimate=1 / interlaced=0 / bluray_compat=0 / constrained_intra=0 / bframes=16 / b_pyramid=2 / b_adapt=2 / b_bias=0 / direct=3 / weightb=1 / open_gop=0 / weightp=2 / keyint=240 / keyint_min=23 / scenecut=40 / intra_refresh=0 / rc_lookahead=60 / rc=crf / mbtree=0 / crf=16.5 / qcomp=0.60 / qpmin=0 / qpmax=69 / qpstep=4 / vbv_maxrate=50000 / vbv_bufsize=62500 / crf_max=0.0 / nal_hrd=none / filler=0 / ip_ratio=1.40 / pb_ratio=1.30 / aq=3:0.80
Language : English
Default : Yes
Forced : No
Color primaries : BT.709
Transfer characteristics : BT.709
Matrix coefficients : BT.709
DURATION : 01:43:03.344000000
NUMBER_OF_FRAMES : 148252
NUMBER_OF_BYTES : 3202813141
_STATISTICS_WRITING_APP : mkvmerge v12.0.0 ('Trust / Lust') 64bit
_STATISTICS_WRITING_DATE_UTC : 2017-05-22 20:53:55
_STATISTICS_TAGS : BPS DURATION NUMBER_OF_FRAMES NUMBER_OF_BYTES
Audio #1
ID : 2
Format : AC-3
Format/Info : Audio Coding 3
Mode extension : CM (complete main)
Format settings, Endianness : Big
Codec ID : A_AC3
Duration : 1h 43mn
Bit rate mode : Constant
Bit rate : 448 Kbps
Channel(s) : 6 channels
Channel positions : Front: L C R, Side: L R, LFE
Sampling rate : 48.0 KHz
Bit depth : 16 bits
Compression mode : Lossy
Stream size : 330 MiB (9%)
Title : Dub Bluray CEE
Language : Russian
Default : No
Forced : No
Audio #2
ID : 3
Format : AC-3
Format/Info : Audio Coding 3
Mode extension : CM (complete main)
Format settings, Endianness : Big
Codec ID : A_AC3
Duration : 1h 43mn
Bit rate mode : Constant
Bit rate : 448 Kbps
Channel(s) : 6 channels
Channel positions : Front: L C R, Side: L R, LFE
Sampling rate : 48.0 KHz
Bit depth : 16 bits
Compression mode : Lossy
Stream size : 330 MiB (9%)
Title : Eng
Language : English
Default : No
Forced : No
Text #1
ID : 4
Format : UTF-8
Codec ID : S_TEXT/UTF8
Codec ID/Info : UTF-8 Plain Text
Title : Rus forsed
Language : Russian
Default : Yes
Forced : No
Text #2
ID : 5
Format : UTF-8
Codec ID : S_TEXT/UTF8
Codec ID/Info : UTF-8 Plain Text
Title : Rus
Language : Russian
Default : No
Forced : No
Text #3
ID : 6
Format : UTF-8
Codec ID : S_TEXT/UTF8
Codec ID/Info : UTF-8 Plain Text
Title : Eng forsed
Language : English
Default : No
Forced : No
Text #4
ID : 7
Format : UTF-8
Codec ID : S_TEXT/UTF8
Codec ID/Info : UTF-8 Plain Text
Title : Eng
Language : English
Default : No
Forced : No
Text #5
ID : 8
Format : UTF-8
Codec ID : S_TEXT/UTF8
Codec ID/Info : UTF-8 Plain Text
Title : Eng SDH
Language : English
Default : No
Forced : No
Menu
00:00:00.000 : en:Chapter 1
00:05:58.358 : en:Chapter 2
00:11:47.539 : en:Chapter 3
00:16:53.678 : en:Chapter 4
00:20:13.252 : en:Chapter 5
00:25:11.009 : en:Chapter 6
00:28:55.316 : en:Chapter 7
00:33:57.743 : en:Chapter 8
00:37:54.145 : en:Chapter 9
00:42:42.933 : en:Chapter 10
00:46:18.942 : en:Chapter 11
00:50:27.690 : en:Chapter 12
00:56:46.067 : en:Chapter 13
01:01:58.047 : en:Chapter 14
01:07:12.820 : en:Chapter 15
01:12:08.532 : en:Chapter 16
01:18:20.862 : en:Chapter 17
01:23:25.081 : en:Chapter 18
01:27:26.157 : en:Chapter 19
01:31:14.385 : en:Chapter 20

x264 log

x264 [info]: frame I:1027 Avg QP:14.87 size: 95783 PSNR Mean Y:48.93 U:51.94 V:51.47 Avg:49.59 Global:48.92
x264 [info]: frame P:39268 Avg QP:15.47 size: 39784 PSNR Mean Y:47.11 U:50.81 V:50.16 Avg:47.92 Global:46.98
x264 [info]: frame B:107957 Avg QP:18.01 size: 14285 PSNR Mean Y:46.27 U:50.29 V:49.46 Avg:47.04 Global:46.10
x264 [info]: consecutive B-frames: 4.0% 4.7% 19.4% 25.9% 17.0% 20.6% 4.3% 1.3% 0.8% 0.6% 0.3% 0.3% 0.2% 0.2% 0.1% 0.1% 0.3%
x264 [total]: encoded 148252 frames, 0.84 fps, 4143.79 kb/s

Знаете ли вы что

• «Великая стена» стал самым дорогим фильмом, снятым в Китае. Лишь некоторые сцены снимали в Новой Зеландии.
• Голливудский дебют Энди Лау, гонконгского певца, актёра и продюсера.
• Музыку к фильму должен был написать Джеймс Хорнер, однако 22 июня 2015 года он трагически погиб в возрасте 61 года.
• Надпись на постере к фильму гласит, что строительство Великой стены заняло 1 700 лет. Всё строительство вполне могло занять столько времени. Великую стену строили по частям по приказу представителей сменявших друг друга правящих династий. На постройку каждого такого участка стены уходило от 10 до 20 лет.
• Переговоры о съёмках шли с Брайаном Крэнстоном, но, в конце концов, на предназначавшуюся ему роль утвердили Уиллема Дефо.
• Одно время предполагалось, что режиссёром фильма станет Эдвард Цвик, а роль главного героя сыграет Генри Кавилл.
• Сыгравший в фильме Лухан является бывшим участником южно-корейско-китайской группы EXO.
• На одну из ролей в фильме планировалось пригласить Александра Скарсгарда. Позже на неё утвердили Бенджамина Уокера, однако тот вскоре покинул проект.

Скриншот c названием фильма

Скриншоты

Сравнения

Source by_IVAN@190282 SOURCE VS by_IVAN@190282 http://screenshotcomparison.com/comparison/210803/picture:0
Убедительная просьба пожалуйста кто скачал не бросайте раздачу!!!
 GOLD TORRENT! DOWNLOAD TRAFFIC DOES NOT CONSIDER! 
Torrent: Registered [ 2017-10-02 03:47 ]   · 718AC71B8BA00107780678963B5A8C19B35E5674

Download .torrent

Download

19 KB

Status: checked
Completed: 0 times
Size: 3.63 GB
Поделиться:
terms.php
[Profile] [PM]
Display posts:    
Reply to topic

Current time is: 01-Dec 17:43

All times are UTC + 3



You cannot post new topics in this forum
You cannot reply to topics in this forum
You cannot edit your posts in this forum
You cannot delete your posts in this forum
You cannot vote in polls in this forum
You cannot attach files in this forum
You can download files in this forum