Судный день / Doomsday (Нил Маршалл / Neil Marshall) [2008, Германия, США, Великобритания, ЮАР, Фантастика, боевик, триллер, BDRip-AVC] Dub + 2x MVO + 2x AVO +Sub Rus, Eng + Original Eng

Reply to topic
DL-List and Torrent activity
Size:  5.77 GB   |    Registered:  3 months 23 days   |    Completed:  0 times

Seeder not seen: Never

 
   
 
 
Author Message

admin ®

Gender: Male

Longevity: 3 years

Posts: 10018

Post 09-Oct-2017 08:29

[Quote]

Судный деньDoomsday«У человечества есть срок годности...» Расширенная версия / Unrated Edition

Страна: Германия, США, Великобритания, ЮАР
Жанр: Фантастика, боевик, триллер
Год выпуска: 2008
Продолжительность: 01:52:50
Перевод: Профессиональный (дублированный) Blu-ray
Перевод 2: Профессиональный (многоголосый закадровый) Киномания
Перевод 3: Профессиональный (многоголосый закадровый) Кравец
Перевод 4: Авторский (одноголосый закадровый) А.Гаврилов
Перевод 5: Авторский (одноголосый закадровый) Ю.Немахов
Субтитры: русские,английские
Оригинальная аудиодорожка: английский
Режиссер: Нил Маршалл / Neil Marshall
В ролях: Рона Митра, Боб Хоскинс, Дэвид О’Хара, Адриан Лестер, Рик Уорден, Шон Пертуи, Даррен Морфитт, МайАнна Бёринг, Малкольм МакДауэлл, Кэрин Петерсон
Описание: Великобритания, недалёкое будущее. Смертельный и совершенно неизученный вирус, названный «Жнецом» («Reaper Virus») обрушился на страну, убивая десятки и сотни тысяч жителей. Не имея возможности решить проблему, правительство решает изолировать очаг заразы от не инфицированной местности, построив вокруг территории буйства «Жнеца» стену.
Проходит 30 лет, но вирус снова заявил о себе. Тогда было решено послать в заражённую область первоклассную команду спецназа для поисков возможных методов борьбы с вирусом. Ради выполнения цели и сохранения жизней ребятам придется пробиваться через настоящий оживший кошмар…
Доп. информация:
Релиз группы:
Сохранены оригинальные главы как на Bluray
Качество видео: BDRip-AVC | Судный день / Doomsday (2008) [Unrated Edition] 1080p BD-Remux|HD Club|
Формат видео: MKV
Видео: 1128x480 (2:35:1), 23,976 fps, 4500 Кbps, 0.348 bit/pixe
Аудио: 48 kHz, AC3 Dolby Digital, 3/2 (L,C,R,l,r) + LFE ch, ~448.00 kbps avg DUB
Аудио 2: 48 kHz, AC3 Dolby Digital, 3/2 (L,C,R,l,r) + LFE ch, ~448.00 kbps avg MVO
Аудио 3: 48 kHz, AC3 Dolby Digital, 3/2 (L,C,R,l,r) + LFE ch, ~448.00 kbps avg ENG
Аудио 4: 48 kHz, AC3 Dolby Digital, 3/2 (L,C,R,l,r) + LFE ch, ~448.00 kbps avg MVO отдельно
Аудио 5: 48 kHz, AC3 Dolby Digital, 3/2 (L,C,R,l,r) + LFE ch, ~448.00 kbps avg AVO
отдельно
Аудио 6: 48 kHz, AC3 Dolby Digital, 3/2 (L,C,R,l,r) + LFE ch, ~448.00 kbps avg AVO отдельно

Формат субтитров: softsub (SRT)
Доп. информация о субтитрах: отключаемые

MediaInfo

General
Unique ID : 235450806380122096032004883233796804207 (0xB1222D0418BDB6479047785F7A504E6F)
Complete name : D:\Мои рипы\Судный день\Doomsday by_IVAN@190282.mkv
Format : Matroska
Format version : Version 4 / Version 2
File size : 4.71 GiB
Duration : 1h 52mn
Overall bit rate : 5 974 Kbps
Encoded date : UTC 2016-03-04 00:49:18
Writing application : mkvmerge v8.8.0 ('Wind at my back') 64bit
Writing library : libebml v1.3.3 + libmatroska v1.4.4
Attachements : cover.jpg
DURATION : 01:44:17.878000000
NUMBER_OF_FRAMES : 847
NUMBER_OF_BYTES : 29637
_STATISTICS_WRITING_APP : mkvmerge v8.8.0 ('Wind at my back') 64bit
_STATISTICS_WRITING_DATE_UT : 2016-03-04 00:49:18
_STATISTICS_TAGS : BPS DURATION NUMBER_OF_FRAMES NUMBER_OF_BYTES
Video
ID : 1
Format : AVC
Format/Info : Advanced Video Codec
Format profile : High@L4.1
Format settings, CABAC : Yes
Format settings, ReFrames : 12 frames
Codec ID : V_MPEG4/ISO/AVC
Duration : 1h 52mn
Bit rate : 4 501 Kbps
Width : 1 128 pixels
Height : 480 pixels
Display aspect ratio : 2.35:1
Frame rate mode : Constant
Frame rate : 23.976 fps
Color space : YUV
Chroma subsampling : 4:2:0
Bit depth : 8 bits
Scan type : Progressive
Bits/(Pixel*Frame) : 0.348
Stream size : 3.56 GiB (76%)
Title : Doomsday by_IVAN@190282
Writing library : x264 core 146 r2538kMod 121396c
Encoding settings : cabac=1 / ref=12 / deblock=1:-3:-3 / analyse=0x3:0x133 / me=umh / subme=11 / psy=1 / fade_compensate=0.00 / psy_rd=1.00:0.05 / mixed_ref=1 / me_range=48 / chroma_me=1 / trellis=2 / 8x8dct=1 / cqm=0 / deadzone=21,11 / fast_pskip=0 / chroma_qp_offset=-3 / threads=6 / lookahead_threads=6 / sliced_threads=0 / nr=0 / decimate=1 / interlaced=0 / bluray_compat=0 / constrained_intra=0 / fgo=0 / bframes=16 / b_pyramid=2 / b_adapt=2 / b_bias=0 / direct=3 / weightb=1 / open_gop=0 / weightp=2 / keyint=240 / keyint_min=23 / scenecut=40 / intra_refresh=0 / rc_lookahead=60 / rc=crf / mbtree=0 / crf=18.5000 / qcomp=0.60 / qpmin=0 / qpmax=69 / qpstep=4 / vbv_maxrate=50000 / vbv_bufsize=62500 / crf_max=0.0 / nal_hrd=none / filler=0 / ip_ratio=1.40 / pb_ratio=1.30 / aq=2:1.80
Language : English
Default : Yes
Forced : No
Color range : Limited
Color primaries : BT.709
Transfer characteristics : BT.709
Matrix coefficients : BT.709
DURATION : 01:52:50.764000000
NUMBER_OF_FRAMES : 162336
NUMBER_OF_BYTES : 3918381804
_STATISTICS_WRITING_APP : mkvmerge v8.8.0 ('Wind at my back') 64bit
_STATISTICS_WRITING_DATE_UT : 2016-03-04 00:49:18
_STATISTICS_TAGS : BPS DURATION NUMBER_OF_FRAMES NUMBER_OF_BYTES
Audio #1
ID : 2
Format : AC-3
Format/Info : Audio Coding 3
Mode extension : CM (complete main)
Format settings, Endianness : Big
Codec ID : A_AC3
Duration : 1h 52mn
Bit rate mode : Constant
Bit rate : 448 Kbps
Channel(s) : 6 channels
Channel positions : Front: L C R, Side: L R, LFE
Sampling rate : 48.0 KHz
Compression mode : Lossy
Stream size : 362 MiB (7%)
Title : Dub
Language : Russian
Default : Yes
Forced : No
Audio #2
ID : 3
Format : AC-3
Format/Info : Audio Coding 3
Mode extension : CM (complete main)
Format settings, Endianness : Big
Codec ID : A_AC3
Duration : 1h 52mn
Bit rate mode : Constant
Bit rate : 448 Kbps
Channel(s) : 6 channels
Channel positions : Front: L C R, Side: L R, LFE
Sampling rate : 48.0 KHz
Compression mode : Lossy
Stream size : 362 MiB (7%)
Title : Eng
Language : English
Default : No
Forced : No
Audio #3
ID : 4
Format : AC-3
Format/Info : Audio Coding 3
Mode extension : CM (complete main)
Format settings, Endianness : Big
Codec ID : A_AC3
Duration : 1h 52mn
Bit rate mode : Constant
Bit rate : 448 Kbps
Channel(s) : 6 channels
Channel positions : Front: L C R, Side: L R, LFE
Sampling rate : 48.0 KHz
Compression mode : Lossy
Stream size : 362 MiB (7%)
Title : Mvo.Киномания
Language : Russian
Default : No
Forced : No
Text #1
ID : 5
Format : UTF-8
Codec ID : S_TEXT/UTF8
Codec ID/Info : UTF-8 Plain Text
Title : Rus
Language : Russian
Default : No
Forced : No
Text #2
ID : 6
Format : UTF-8
Codec ID : S_TEXT/UTF8
Codec ID/Info : UTF-8 Plain Text
Title : Eng
Language : English
Default : No
Forced : No
Menu
00:00:00.000 : en:Reaper Virus (Main Titles)
00:06:13.122 : en:Laws Of Nature
00:13:25.638 : en:Find A Cure
00:17:57.076 : en:No Rules, No Back Up
00:25:27.400 : en:Take Us In
00:30:53.142 : en:We Got A Live One
00:36:41.782 : en:Emergency Evacuation
00:44:33.045 : en:Passeport To The Promised Land
00:50:11.383 : en:Give 'Em Hell
00:57:18.351 : en:Get Me Out Of Here
01:00:12.483 : en:On The Move
01:06:41.747 : en:Natural Selection
01:13:17.684 : en:Inside The Hot Zone
01:16:58.780 : en:Nothing To Lose
01:22:59.808 : en:Under Attack
01:28:33.683 : en:Follow The Prize
01:32:31.837 : en:Here They Come
01:37:48.320 : en:Just A Job
01:41:31.960 : en:Hero Of The Hour
01:45:05.841 : en:End Titles

x264 log

VIDEO ENCODING
x264 [info]: frame I:1326 Avg QP:16.49 size: 74971 PSNR Mean Y:45.43 U:49.38 V:49.67 Avg:46.39 Global:44.66
x264 [info]: frame P:44396 Avg QP:18.05 size: 39230 PSNR Mean Y:44.45 U:49.02 V:49.41 Avg:45.51 Global:43.82
x264 [info]: frame B:116614 Avg QP:19.63 size: 17813 PSNR Mean Y:43.59 U:48.94 V:49.28 Avg:44.74 Global:43.03
x264 [info]: consecutive B-frames: 5.9% 6.2% 11.6% 27.6% 16.3% 26.5% 2.3% 1.6% 0.5% 0.5% 0.2% 0.2% 0.1% 0.1% 0.1% 0.1% 0.2%
x264 [total]: encoded 162336 frames, 6.41 fps, 4500.77 kb/s, duration 7:02:01.88

Скриншот c названием фильма

Скриншоты

Информация о дубляже

Unrated версия не выходила в дубляже, есть места без перевода

Убедительная просьба пожалуйста кто скачал не бросайте раздачу!!!
 GOLD TORRENT! DOWNLOAD TRAFFIC DOES NOT CONSIDER! 
Torrent: Registered [ 2020-06-06 05:45 ]   · 8E95DCB79E4780EF941154EC8CA5F7C025E19E2A

Download .torrent

Download

15 KB

Status: checked
Completed: 0 times
Size: 5.77 GB
Поделиться:
terms.php
[Profile] [PM]
Display posts:    
Reply to topic

Current time is: 30-Sep 05:26

All times are UTC + 3



You cannot post new topics in this forum
You cannot reply to topics in this forum
You cannot edit your posts in this forum
You cannot delete your posts in this forum
You cannot vote in polls in this forum
You cannot attach files in this forum
You can download files in this forum