Я – начало / I Origins (Майк Кэхилл / Mike Cahill) [2014, США, Драма, фантастика, BDRip-AVC] MVO + Sub Rus, Eng + Original Eng

Reply to topic
DL-List and Torrent activity
Size:  2.6 GB   |    Registered:  2 years 11 months   |    Completed:  0 times

Seeder not seen: Never

 
   
 
 
Author Message

admin ®

Gender: Male

Longevity: 3 years

Posts: 10017

Post 09-Oct-2017 08:14

[Quote]

Я – началоI Origins

Страна: США
Жанр: Драма, фантастика
Год выпуска: 2014
Продолжительность: 01:48:07
Перевод: Профессиональный (многоголосый закадровый ) [iTunes]
Субтитры: русские,английские
Оригинальная аудиодорожка: английский
Режиссер: Майк Кэхилл / Mike Cahill
В ролях: Майкл Питт, Стивен Ян, Астрид Берже-Фрисби, Брит Марлинг, Дориен Маклоги, Чарльз В. Грэй, Джон Шиумо, Фараша Бэйлок, Ако, Кристофер Сантамария
Описание: Молодого и перспективного микробиолога повсюду преследует цифра "11". Он не упираясь следует за ней и она приводит его к молодой девушке в которую наш герой безумно влюбляется. Девушка открывает ему мир совсем в другом ракурсе и для него её глаза настоящее "зеркало души". Но девушка умирает. Он погружается в работу, вместе со своей помощницей, делает невероятное открытие, которое меняет понимания всего зарождения жизни людей и это открытие может изменить весь мир...
Доп. информация:
Релиз группы:
Сохранены оригинальные главы как на Bluray
Качество видео: BDRip-AVC |Я – начало / I Origins (2014) 1080p BD-Remux| HD Club
Формат видео: MKV
Видео: 1050x438 (2::40:1), 23,976 fps, 2562 Кbps, 0.232 bit/pixe
Аудио: 48 kHz, AC3 Dolby Digital, 3/2 (L,C,R,l,r) + LFE ch, ~384.00 kbps avg|MVO
Аудио 2: 48 kHz, AC3 Dolby Digital, 3/2 (L,C,R,l,r) + LFE ch, ~448.00 kbps avg|ENG
Формат субтитров: softsub (SRT)
Доп. информация о субтитрах: отключаемые

MediaInfo

General
Unique ID : 233457209930992717307171865232657175940 (0xAFA2391F4DF754E7A7FADFE1F0D15584)
Complete name : E:\Мои рипы\Я начало\Я начало by_IVAN@190282.mkv
Format : Matroska
Format version : Version 4 / Version 2
File size : 2.60 GiB
Duration : 1h 47mn
Overall bit rate : 3 463 Kbps
Encoded date : UTC 2016-02-28 15:05:24
Writing application : mkvmerge v8.8.0 ('Wind at my back') 64bit
Writing library : libebml v1.3.3 + libmatroska v1.4.4
Attachements : cover.jpg
DURATION : 01:46:31.051000000
NUMBER_OF_FRAMES : 1510
NUMBER_OF_BYTES : 42359
_STATISTICS_WRITING_APP : mkvmerge v8.8.0 ('Wind at my back') 64bit
_STATISTICS_WRITING_DATE_UT : 2016-02-28 15:05:24
_STATISTICS_TAGS : BPS DURATION NUMBER_OF_FRAMES NUMBER_OF_BYTES
Video
ID : 1
Format : AVC
Format/Info : Advanced Video Codec
Format profile : High@L4.1
Format settings, CABAC : Yes
Format settings, ReFrames : 14 frames
Codec ID : V_MPEG4/ISO/AVC
Duration : 1h 47mn
Bit rate : 2 563 Kbps
Width : 1 050 pixels
Height : 438 pixels
Display aspect ratio : 2.40:1
Frame rate mode : Constant
Frame rate : 23.976 fps
Color space : YUV
Chroma subsampling : 4:2:0
Bit depth : 8 bits
Scan type : Progressive
Bits/(Pixel*Frame) : 0.232
Stream size : 1.93 GiB (74%)
Writing library : x264 core 144 r2525kMod 40bb568
Encoding settings : cabac=1 / ref=14 / deblock=1:-3:-3 / analyse=0x3:0x113 / me=umh / subme=11 / psy=1 / fade_compensate=0.00 / psy_rd=1.00:0.15 / mixed_ref=1 / me_range=48 / chroma_me=1 / trellis=2 / 8x8dct=1 / cqm=0 / deadzone=21,11 / fast_pskip=0 / chroma_qp_offset=0 / threads=6 / lookahead_threads=6 / sliced_threads=0 / nr=0 / decimate=1 / interlaced=0 / bluray_compat=0 / constrained_intra=0 / fgo=0 / bframes=16 / b_pyramid=2 / b_adapt=2 / b_bias=0 / direct=1 / weightb=1 / open_gop=1 / weightp=2 / keyint=240 / keyint_min=23 / scenecut=40 / intra_refresh=0 / rc_lookahead=40 / rc=crf / mbtree=0 / crf=18.7000 / qcomp=0.60 / qpmin=0 / qpmax=69 / qpstep=4 / vbv_maxrate=50000 / vbv_bufsize=62500 / crf_max=0.0 / nal_hrd=none / filler=0 / ip_ratio=1.40 / pb_ratio=1.30 / aq=1:1.00
Default : Yes
Forced : No
Color range : Limited
Color primaries : BT.709
Transfer characteristics : BT.709
Matrix coefficients : BT.709
Audio #1
ID : 2
Format : AC-3
Format/Info : Audio Coding 3
Mode extension : CM (complete main)
Format settings, Endianness : Big
Codec ID : A_AC3
Duration : 1h 47mn
Bit rate mode : Constant
Bit rate : 384 Kbps
Channel(s) : 6 channels
Channel positions : Front: L C R, Side: L R, LFE
Sampling rate : 48.0 KHz
Compression mode : Lossy
Stream size : 296 MiB (11%)
Title : mvo
Default : Yes
Forced : No
Audio #2
ID : 3
Format : AC-3
Format/Info : Audio Coding 3
Mode extension : CM (complete main)
Format settings, Endianness : Big
Codec ID : A_AC3
Duration : 1h 47mn
Bit rate mode : Constant
Bit rate : 448 Kbps
Channel(s) : 6 channels
Channel positions : Front: L C R, Side: L R, LFE
Sampling rate : 48.0 KHz
Compression mode : Lossy
Stream size : 345 MiB (13%)
Title : Eng
Default : No
Forced : No
Text #1
ID : 4
Format : UTF-8
Codec ID : S_TEXT/UTF8
Codec ID/Info : UTF-8 Plain Text
Title : Rus
Default : No
Forced : No
Text #2
ID : 5
Format : UTF-8
Codec ID : S_TEXT/UTF8
Codec ID/Info : UTF-8 Plain Text
Title : Eng
Default : No
Forced : No
Menu
00:00:00.000 : en:Chapter 1
00:02:40.828 : en:Chapter 2
00:05:32.914 : en:Chapter 3
00:07:23.900 : en:Chapter 4
00:12:35.713 : en:Chapter 5
00:13:52.412 : en:Chapter 6
00:16:43.461 : en:Chapter 7
00:19:01.181 : en:Chapter 8
00:21:32.875 : en:Chapter 9
00:25:36.742 : en:Chapter 10
00:29:38.233 : en:Chapter 11
00:32:51.428 : en:Chapter 12
00:36:25.434 : en:Chapter 13
00:42:30.340 : en:Chapter 14
00:46:38.127 : en:Chapter 15
00:50:51.256 : en:Chapter 16
00:54:16.502 : en:Chapter 17
00:58:26.545 : en:Chapter 18
01:02:26.577 : en:Chapter 19
01:05:25.963 : en:Chapter 20
01:07:49.565 : en:Chapter 21
01:12:53.536 : en:Chapter 22
01:16:32.296 : en:Chapter 23
01:18:40.216 : en:Chapter 24
01:21:19.125 : en:Chapter 25
01:24:00.452 : en:Chapter 26
01:26:06.912 : en:Chapter 27
01:27:52.558 : en:Chapter 28
01:32:45.725 : en:Chapter 29
01:37:39.813 : en:Chapter 30
01:39:03.603 : en:Chapter 31
01:42:23.555 : en:Chapter 32

x264 log

x264 [info]: frame I:1087 Avg QP:16.00 size: 61656
x264 [info]: frame P:29176 Avg QP:17.65 size: 25456
x264 [info]: frame B:124585 Avg QP:19.37 size: 10539
x264 [info]: consecutive B-frames: 1.5% 3.5% 5.1% 8.1% 13.7% 43.9% 6.6% 1.1% 2.3% 2.4% 2.7% 1.2% 2.7% 2.9% 1.0% 0.4% 1.0%
x264 [info]: kb/s:2629.40
x264 [total]: encoded 154848 frames, 4.32 fps, 2629.40 kb/s, duration 9:57:24.24

Скриншот c названием фильма

Скриншоты

Убедительная просьба пожалуйста кто скачал не бросайте раздачу!!!
 GOLD TORRENT! DOWNLOAD TRAFFIC DOES NOT CONSIDER! 
Torrent: Registered [ 2017-10-09 08:14 ]   · F3729A374992614C7B29A00754AEB974AF466636

Download .torrent

Download

14 KB

Status: checked
Completed: 0 times
Size: 2.6 GB
Поделиться:
terms.php
[Profile] [PM]
Display posts:    
Reply to topic

Current time is: 28-Sep 09:23

All times are UTC + 3



You cannot post new topics in this forum
You cannot reply to topics in this forum
You cannot edit your posts in this forum
You cannot delete your posts in this forum
You cannot vote in polls in this forum
You cannot attach files in this forum
You can download files in this forum