Изо всех сил / Over the Top (Менахем Голан / Menahem Golan) [1987, США, Боевик, драма, семейный, спорт, BDRip-AVC] MVO + 2x AVO + Sub Rus, Eng + Original Eng

Reply to topic
DL-List and Torrent activity
Size:  4.14 GB   |    Registered:  2 years 11 months   |    Completed:  0 times

Seeder not seen: Never

 
   
 
 
Author Message

admin ®

Gender: Male

Longevity: 3 years

Posts: 10018

Post 09-Oct-2017 08:10

[Quote]

Изо всех силOver the Top«Rocky, Rambo, Cobra And Now _Hawk_, In The Biggest Fight Of His Life»

Страна: США
Жанр: Боевик, драма, семейный, спорт
Год выпуска: 1987
Продолжительность: 01:33:43
Перевод: Профессиональный (многоголосый закадровый) BD
Перевод 2: Авторский (одноголосый закадровый) А.Гаврилов
Перевод 3: Авторский (одноголосый закадровый) Ю.Немаховов
Субтитры: русские,английские
Оригинальная аудиодорожка: английский
Режиссер: Менахем Голан / Menahem Golan
В ролях: Сильвестр Сталлоне, Роберт Лоджа, Сьюзан Блейкли, Рик Цумвальт, Дэвид Менденхолл, Крис МакКарти, Терри Фанк, Боб Битти, Аллан Граф, Мэджик Шварц
Описание: Водитель грузовика Линкольн Хоук, по прозвищу Ястреб, едет в Лас-Вегас на чемпионат мира по армреслингу. У него много забот: надо встретиться и поговорить с бывшей женой, умирающей от странной болезни сердца; проведать, сломав ворота и разобравшись с телохранителями, любимого тестя и любой ценой заполучить сына, брошенного 10 лет назад. Сын, в начале принявший отца в штыки, станет опорой Ястреба и поможет ему выиграть чемпионат.
Доп. информация:
Релиз группы:
Сохранены оригинальные главы как на Bluray
Качество видео: BDRip-AVC | Изо всех сил / Over the Top (1987) 1080p BD-Remux| HD club
Формат видео: MKV
Видео:1076x460 (2:35:1), 23,976 fps, 4421 Кbps, 0.373 bit/pixe
Аудио :48 kHz, AC3 Dolby Digital, 3/2 (L,C,R,l,r) + LFE ch, ~448.00 kbps avg MVO
Аудио 2: 48 kHz, AC3 Dolby Digital, 3/2 (L,C,R,l,r) + LFE ch, ~448.00 kbps avg ENG
Аудио 3: 48 kHz, AC3 Dolby Digital, 3/2 (L,C,R,l,r) + LFE ch, ~448.00 kbps avg AVO
отдельно
Аудио 4: 48 kHz, AC3 Dolby Digital, 3/2 (L,C,R,l,r) + LFE ch, ~448.00 kbps avg AVO отдельно

Формат субтитров: softsub (SRT)
Доп. информация о субтитрах: отключаемые

MediaInfo

General
Unique ID : 189703368889927853482772651225553739287 (0x8EB78A34E54F7ED89399D8BFC6CE9E17)
Complete name : D:\Мои рипы\Изо всех сил\Over the Top by_IVAN@190282.mkv
Format : Matroska
Format version : Version 4 / Version 2
File size : 3.55 GiB
Duration : 1h 33mn
Overall bit rate : 5 425 Kbps
Encoded date : UTC 2016-03-03 02:29:52
Writing application : mkvmerge v8.8.0 ('Wind at my back') 64bit
Writing library : libebml v1.3.3 + libmatroska v1.4.4
Attachements : cover.png
DURATION : 01:30:24.507000000
NUMBER_OF_FRAMES : 992
NUMBER_OF_BYTES : 37008
_STATISTICS_WRITING_APP : mkvmerge v8.8.0 ('Wind at my back') 64bit
_STATISTICS_WRITING_DATE_UT : 2016-03-03 02:29:52
_STATISTICS_TAGS : BPS DURATION NUMBER_OF_FRAMES NUMBER_OF_BYTES
Video
ID : 1
Format : AVC
Format/Info : Advanced Video Codec
Format profile : High@L4.1
Format settings, CABAC : Yes
Format settings, ReFrames : 12 frames
Codec ID : V_MPEG4/ISO/AVC
Duration : 1h 33mn
Bit rate : 4 421 Kbps
Width : 1 076 pixels
Height : 460 pixels
Display aspect ratio : 2.35:1
Frame rate mode : Constant
Frame rate : 23.976 fps
Color space : YUV
Chroma subsampling : 4:2:0
Bit depth : 8 bits
Scan type : Progressive
Bits/(Pixel*Frame) : 0.373
Stream size : 2.89 GiB (81%)
Title : Over the Top by_IVAN@190282
Writing library : x264 core 148 r2579kMod 73ae2d1
Encoding settings : cabac=1 / ref=12 / deblock=1:-3:-3 / analyse=0x3:0x133 / me=umh / subme=11 / psy=1 / fade_compensate=0.00 / psy_rd=1.00:0.05 / mixed_ref=1 / me_range=48 / chroma_me=1 / trellis=2 / 8x8dct=1 / cqm=0 / deadzone=21,11 / fast_pskip=0 / chroma_qp_offset=-3 / threads=6 / lookahead_threads=6 / sliced_threads=0 / nr=0 / decimate=1 / interlaced=0 / bluray_compat=0 / constrained_intra=0 / fgo=0 / bframes=16 / b_pyramid=2 / b_adapt=2 / b_bias=0 / direct=3 / weightb=1 / open_gop=0 / weightp=2 / keyint=240 / keyint_min=23 / scenecut=40 / intra_refresh=0 / rc_lookahead=60 / rc=crf / mbtree=0 / crf=19.2000 / qcomp=0.60 / qpmin=0 / qpmax=69 / qpstep=4 / vbv_maxrate=50000 / vbv_bufsize=62500 / crf_max=0.0 / nal_hrd=none / filler=0 / ip_ratio=1.40 / pb_ratio=1.30 / aq=2:1.10
Language : English
Default : Yes
Forced : No
Color range : Limited
Color primaries : BT.709
Transfer characteristics : BT.709
Matrix coefficients : BT.709
DURATION : 01:33:43.535000000
NUMBER_OF_FRAMES : 134830
NUMBER_OF_BYTES : 3181371110
_STATISTICS_WRITING_APP : mkvmerge v8.8.0 ('Wind at my back') 64bit
_STATISTICS_WRITING_DATE_UT : 2016-03-03 02:29:52
_STATISTICS_TAGS : BPS DURATION NUMBER_OF_FRAMES NUMBER_OF_BYTES
Audio #1
ID : 2
Format : AC-3
Format/Info : Audio Coding 3
Mode extension : CM (complete main)
Format settings, Endianness : Big
Codec ID : A_AC3
Duration : 1h 33mn
Bit rate mode : Constant
Bit rate : 448 Kbps
Channel(s) : 6 channels
Channel positions : Front: L C R, Side: L R, LFE
Sampling rate : 48.0 KHz
Compression mode : Lossy
Stream size : 300 MiB (8%)
Title : Mvo
Language : Russian
Default : Yes
Forced : No
Audio #2
ID : 3
Format : AC-3
Format/Info : Audio Coding 3
Mode extension : CM (complete main)
Format settings, Endianness : Big
Codec ID : A_AC3
Duration : 1h 33mn
Bit rate mode : Constant
Bit rate : 448 Kbps
Channel(s) : 6 channels
Channel positions : Front: L C R, Side: L R, LFE
Sampling rate : 48.0 KHz
Compression mode : Lossy
Stream size : 300 MiB (8%)
Title : Eng
Language : English
Default : No
Forced : No
Text #1
ID : 4
Format : UTF-8
Codec ID : S_TEXT/UTF8
Codec ID/Info : UTF-8 Plain Text
Title : Rus
Language : Russian
Default : No
Forced : No
Text #2
ID : 5
Format : UTF-8
Codec ID : S_TEXT/UTF8
Codec ID/Info : UTF-8 Plain Text
Title : Rus.SDH
Language : Russian
Default : No
Forced : No
Text #3
ID : 6
Format : UTF-8
Codec ID : S_TEXT/UTF8
Codec ID/Info : UTF-8 Plain Text
Title : Eng
Language : English
Default : No
Forced : No
Menu
00:00:00.000 : en:Credits
00:05:16.274 : en:Unexpected Ride
00:09:09.507 : en:Reckless Runaway
00:11:51.085 : en:Full of Good Humor
00:15:04.945 : en:Smasher Smasher
00:17:57.451 : en:Do This for Me
00:21:57.357 : en:Meet Me Half Way
00:25:15.430 : en:Driver's Seat
00:29:51.998 : en:The Challenge
00:33:25.503 : en:Good Genetics
00:35:49.522 : en:Kidnappers
00:39:19.482 : en:Sad News
00:44:15.152 : en:Confrontation
00:48:48.967 : en:What's Best
00:54:35.730 : en:For Love and Money
00:59:02.455 : en:Preliminaries
01:03:02.153 : en:Second Sucks
01:06:50.047 : en:Grizzly Semifinal
01:09:41.093 : en:I Got a Family
01:12:20.711 : en:Going to the Finals
01:14:37.848 : en:Over the Top
01:17:39.821 : en:All Michael Cares About
01:20:10.472 : en:World of Hurt
01:23:58.700 : en:The Victor
01:28:04.737 : en:End Credits

x264 log

x264 [info]: frame I:868 Avg QP:19.66 size: 74943 PSNR Mean Y:43.39 U:48.72 V:49.92 Avg:44.52 Global:44.06
x264 [info]: frame P:28954 Avg QP:21.03 size: 41126 PSNR Mean Y:41.90 U:48.74 V:49.79 Avg:43.11 Global:42.59
x264 [info]: frame B:105008 Avg QP:22.93 size: 18337 PSNR Mean Y:40.41 U:47.67 V:48.91 Avg:41.72 Global:41.31
x264 [info]: consecutive B-frames: 1.7% 3.0% 7.5% 24.8% 17.3% 26.9% 6.7% 6.6% 2.2% 1.2% 0.7% 1.0% 0.2% 0.0% 0.1% 0.1% 0.1%
x264 [total]: encoded 134830 frames, 6.10 fps, 4498.80 kb/s, duration 6:08:38.77

Скриншот c названием фильма

Скриншоты

Убедительная просьба пожалуйста кто скачал не бросайте раздачу!!!
 GOLD TORRENT! DOWNLOAD TRAFFIC DOES NOT CONSIDER! 
Torrent: Registered [ 2017-10-09 08:10 ]   · CCEF30D70223CFBF02D34156F9E58E26ED787786

Download .torrent

Download

11 KB

Status: checked
Completed: 0 times
Size: 4.14 GB
Поделиться:
terms.php
[Profile] [PM]
Display posts:    
Reply to topic

Current time is: 30-Sep 05:19

All times are UTC + 3



You cannot post new topics in this forum
You cannot reply to topics in this forum
You cannot edit your posts in this forum
You cannot delete your posts in this forum
You cannot vote in polls in this forum
You cannot attach files in this forum
You can download files in this forum