Конан-варвар / Conan the Barbarian (1982) BDRip 1080p

Reply to topic
DL-List and Torrent activity
Size:  17.77 GB   |    Registered:  3 years 1 month   |    Completed:  0 times
Seeders:  4  [  0 KB/s  ]   Show peers in full details
 
   
 
 
Author Message

admin ®

Gender: Male

Longevity: 3 years 2 months

Posts: 10110

Post 09-Oct-2017 07:24

[Quote]

Конан-варварConan the Barbarian«Thief Warrior Gladiator King»- Страна: США
Жанр: фэнтези, приключения
Год выпуска: 1982
Продолжительность: 02:10:31
Перевод: 4 x Профессиональный (многоголосый, закадровый), 2 x Профессиональный (двухголосый, закадровый), 4 x Авторский
Субтитры: русские, английские.-Режиссер: Джон Милиус / John Milius-В ролях: Арнольд Шварценеггер (Conan), Джеймс Эрл Джонс (Thulsa Doom), Макс фон Сюдов (King Osric), Сэндал Бергман (Valeria), Бен Дэвидсон (Rexor), Кассандра Гава (The Witch), Джерри Лопес (Subotai), Мако (The Wizard / рассказчик), Валери Кеннессен (The Princess), Уильям Смит (Conan's Father), Луис Барбо (Red Hair), Франко Коломбо (Pictish Scout)-Описание: В детстве Конан стал свидетелем жестокого убийства своих родителей беспощадным Тулса Думом. Его обезумевшие от запаха крови солдаты разорили и сожгли до тла родную деревню Конана. Мальчик вырастает в рабстве и превращается в обладающего неимоверной силой и мышечной массой непобедимого воина.-
MPAA: R - Лицам до 17 лет обязательно присутствие взрослого-Семпл--Качество: BDRip 1080p
Контейнер: MKV
Видео: AVC, 1920x816 (2.35:1), 14500 kbps, 23,976 fps, 0,386 bpp
Аудио №01: русский / AC3 / 5.1 / 48 kHz / 640 kbps / MVO ( Карусель )
Аудио №02: русский / AC3 / 5.1 / 48 kHz / 640 kbps / MVO ( Киномания )
Аудио №03: русский / AC3 / 5.1 / 48 kHz / 384 kbps / MVO
Аудио №04: русский / AC3 / 2.0 / 48 kHz / 192 kbps / MVO ( НТВ+ )
Аудио №05: русский / AC3 / 5.1 / 48 kHz / 640 kbps / DVO ( BD CEE )
Аудио №06: русский / AC3 / 5.1 / 48 kHz / 640 kbps / DVO ( Гланц и Королева )
Аудио №07: русский / AC3 / 5.1 / 48 kHz / 640 kbps / AVO ( Гаврилов )
Аудио №08: русский / AC3 / 2.0 / 48 kHz / 192 kbps / AVO ( Горчаков )
Аудио №09: русский / AC3 / 2.0 / 48 kHz / 192 kbps / AVO ( Готлиб )
Аудио №10: русский / AC3 / 2.0 / 48 kHz / 192 kbps / AVO ( Михалёв )
Аудио №11: английский / AC3 / 5.1 / 48 kHz / 640 kbps
Навигация по главам: есть-

Media Info

***********************************************************
x264 [info]: frame I:1045 Avg QP:16.37 size:178134
x264 [info]: frame P:37207 Avg QP:18.51 size:110518
x264 [info]: frame B:149524 Avg QP:20.19 size: 66152
***********************************************************
Формат : Matroska
Версия формата : Version 2
Размер файла : 17,8 Гбайт
Продолжительность : 2 ч. 10 м.
Общий поток : 19,5 Мбит/сек
Название фильма : = Конан-варвар / Conan The Barbarian (1982) BDRip 1080p - KORSAR =
Дата кодирования : UTC 2017-10-07 07:38:38
Программа кодирования : mkvmerge v5.8.0 ('No Sleep / Pillow') built on Sep 2 2012 15:37:04
Библиотека кодирования : libebml v1.2.3 + libmatroska v1.3.0
Attachment : Yes
Видео
Идентификатор : 1
Формат : AVC
Формат/Информация : Advanced Video Codec
Профиль формата : High@L4.1
Параметр CABAC формата : Да
Параметр ReFrames формата : 5 кадров
Идентификатор кодека : V_MPEG4/ISO/AVC
Продолжительность : 2 ч. 10 м.
Битрейт : 14,5 Мбит/сек
Ширина : 1920 пикселей
Высота : 816 пикселей
Соотношение сторон : 2,35:1
Режим частоты кадров : Постоянный
Частота кадров : 23,976 кадра/сек
Цветовое пространство : YUV
Субдискретизация насыщенности : 4:2:0
Битовая глубина : 8 бит
Тип развёртки : Прогрессивная
Бит/(Пиксели*Кадры) : 0.386
Размер потока : 12,9 Гбайт (72%)
Заголовок : Конан-варвар / Conan The Barbarian (1982) BDRip 1080p - KORSAR
Библиотека кодирования : x264 core 148 r2744kMod b97ae06
Настройки программы : cabac=1 / ref=5 / deblock=1:-3:-3 / analyse=0x3:0x113 / me=umh / subme=11 / psy=1 / fade_compensate=0.00 / psy_rd=1.00:0.00 / mixed_ref=1 / me_range=32 / chroma_me=1 / trellis=2 / 8x8dct=1 / cqm=0 / deadzone=21,11 / fast_pskip=0 / chroma_qp_offset=-2 / threads=12 / lookahead_threads=3 / sliced_threads=0 / nr=0 / decimate=0 / interlaced=0 / bluray_compat=0 / constrained_intra=0 / bframes=12 / b_pyramid=2 / b_adapt=2 / b_bias=0 / direct=3 / weightb=1 / open_gop=0 / weightp=2 / keyint=240 / keyint_min=23 / scenecut=40 / intra_refresh=0 / rc_lookahead=60 / rc=2pass / mbtree=0 / bitrate=14500 / ratetol=1.0 / qcomp=0.60 / qpmin=0 / qpmax=69 / qpstep=4 / cplxblur=20.0 / qblur=0.5 / vbv_maxrate=50000 / vbv_bufsize=62500 / nal_hrd=none / filler=0 / ip_ratio=1.40 / pb_ratio=1.30 / aq=1:1.00
Язык : English
Default : Да
Forced : Нет
Основные цвета : BT.709
Характеристики трансфера : BT.709
Коэффициенты матрицы : BT.709
Аудио #1
Идентификатор : 2
Формат : AC-3
Формат/Информация : Audio Coding 3
Расширение режима : CM (complete main)
Параметр Endianness формата : Big
Идентификатор кодека : A_AC3
Продолжительность : 2 ч. 10 м.
Вид битрейта : Постоянный
Битрейт : 640 Кбит/сек
Каналы : 6 каналов
Расположение каналов : Front: L C R, Side: L R, LFE
Частота : 48,0 КГц
Битовая глубина : 16 бит
Метод сжатия : С потерями
Размер потока : 598 Мбайт (3%)
Заголовок : MVO ( Карусель )
Язык : Russian
Default : Да
Forced : Нет
Аудио #2
Идентификатор : 3
Формат : AC-3
Формат/Информация : Audio Coding 3
Расширение режима : CM (complete main)
Параметр Endianness формата : Big
Идентификатор кодека : A_AC3
Продолжительность : 2 ч. 10 м.
Вид битрейта : Постоянный
Битрейт : 640 Кбит/сек
Каналы : 6 каналов
Расположение каналов : Front: L C R, Side: L R, LFE
Частота : 48,0 КГц
Битовая глубина : 16 бит
Метод сжатия : С потерями
Размер потока : 598 Мбайт (3%)
Заголовок : MVO ( Киномания )
Язык : Russian
Default : Нет
Forced : Нет
Аудио #3
Идентификатор : 4
Формат : AC-3
Формат/Информация : Audio Coding 3
Расширение режима : CM (complete main)
Параметр Endianness формата : Big
Идентификатор кодека : A_AC3
Продолжительность : 2 ч. 10 м.
Вид битрейта : Постоянный
Битрейт : 384 Кбит/сек
Каналы : 6 каналов
Расположение каналов : Front: L C R, Side: L R, LFE
Частота : 48,0 КГц
Битовая глубина : 16 бит
Метод сжатия : С потерями
Размер потока : 359 Мбайт (2%)
Заголовок : MVO
Язык : Russian
Default : Нет
Forced : Нет
Аудио #4
Идентификатор : 5
Формат : AC-3
Формат/Информация : Audio Coding 3
Расширение режима : CM (complete main)
Параметр Endianness формата : Big
Идентификатор кодека : A_AC3
Продолжительность : 2 ч. 10 м.
Вид битрейта : Постоянный
Битрейт : 192 Кбит/сек
Каналы : 2 канала
Расположение каналов : Front: L R
Частота : 48,0 КГц
Битовая глубина : 16 бит
Метод сжатия : С потерями
Размер потока : 179 Мбайт (1%)
Заголовок : MVO ( НТВ+ )
Язык : Russian
Default : Нет
Forced : Нет
Аудио #5
Идентификатор : 6
Формат : AC-3
Формат/Информация : Audio Coding 3
Расширение режима : CM (complete main)
Параметр Endianness формата : Big
Идентификатор кодека : A_AC3
Продолжительность : 2 ч. 10 м.
Вид битрейта : Постоянный
Битрейт : 640 Кбит/сек
Каналы : 6 каналов
Расположение каналов : Front: L C R, Side: L R, LFE
Частота : 48,0 КГц
Битовая глубина : 16 бит
Метод сжатия : С потерями
Размер потока : 598 Мбайт (3%)
Заголовок : DVO ( BD CEE )
Язык : Russian
Default : Нет
Forced : Нет
Аудио #6
Идентификатор : 7
Формат : AC-3
Формат/Информация : Audio Coding 3
Расширение режима : CM (complete main)
Параметр Endianness формата : Big
Идентификатор кодека : A_AC3
Продолжительность : 2 ч. 10 м.
Вид битрейта : Постоянный
Битрейт : 640 Кбит/сек
Каналы : 6 каналов
Расположение каналов : Front: L C R, Side: L R, LFE
Частота : 48,0 КГц
Битовая глубина : 16 бит
Метод сжатия : С потерями
Размер потока : 598 Мбайт (3%)
Заголовок : DVO ( Гланц и Королева )
Язык : Russian
Default : Нет
Forced : Нет
Аудио #7
Идентификатор : 8
Формат : AC-3
Формат/Информация : Audio Coding 3
Расширение режима : CM (complete main)
Параметр Endianness формата : Big
Идентификатор кодека : A_AC3
Продолжительность : 2 ч. 10 м.
Вид битрейта : Постоянный
Битрейт : 640 Кбит/сек
Каналы : 6 каналов
Расположение каналов : Front: L C R, Side: L R, LFE
Частота : 48,0 КГц
Битовая глубина : 16 бит
Метод сжатия : С потерями
Размер потока : 598 Мбайт (3%)
Заголовок : AVO ( Гаврилов )
Язык : Russian
Default : Нет
Forced : Нет
Аудио #8
Идентификатор : 9
Формат : AC-3
Формат/Информация : Audio Coding 3
Расширение режима : CM (complete main)
Параметр Endianness формата : Big
Идентификатор кодека : A_AC3
Продолжительность : 2 ч. 10 м.
Вид битрейта : Постоянный
Битрейт : 192 Кбит/сек
Каналы : 2 канала
Расположение каналов : Front: L R
Частота : 48,0 КГц
Битовая глубина : 16 бит
Метод сжатия : С потерями
Размер потока : 179 Мбайт (1%)
Заголовок : AVO ( Горчаков )
Язык : Russian
Default : Нет
Forced : Нет
Аудио #9
Идентификатор : 10
Формат : AC-3
Формат/Информация : Audio Coding 3
Расширение режима : CM (complete main)
Параметр Endianness формата : Big
Идентификатор кодека : A_AC3
Продолжительность : 2 ч. 10 м.
Вид битрейта : Постоянный
Битрейт : 192 Кбит/сек
Каналы : 2 канала
Расположение каналов : Front: L R
Частота : 48,0 КГц
Битовая глубина : 16 бит
Метод сжатия : С потерями
Размер потока : 179 Мбайт (1%)
Заголовок : AVO ( Готлиб )
Язык : Russian
Default : Нет
Forced : Нет
Аудио #10
Идентификатор : 11
Формат : AC-3
Формат/Информация : Audio Coding 3
Расширение режима : CM (complete main)
Параметр Endianness формата : Big
Идентификатор кодека : A_AC3
Продолжительность : 2 ч. 10 м.
Вид битрейта : Постоянный
Битрейт : 192 Кбит/сек
Каналы : 2 канала
Расположение каналов : Front: L R
Частота : 48,0 КГц
Битовая глубина : 16 бит
Метод сжатия : С потерями
Размер потока : 179 Мбайт (1%)
Заголовок : AVO ( Михалёв )
Язык : Russian
Default : Нет
Forced : Нет
Аудио #11
Идентификатор : 12
Формат : AC-3
Формат/Информация : Audio Coding 3
Расширение режима : CM (complete main)
Параметр Endianness формата : Big
Идентификатор кодека : A_AC3
Продолжительность : 2 ч. 10 м.
Вид битрейта : Постоянный
Битрейт : 640 Кбит/сек
Каналы : 6 каналов
Расположение каналов : Front: L C R, Side: L R, LFE
Частота : 48,0 КГц
Битовая глубина : 16 бит
Метод сжатия : С потерями
Размер потока : 598 Мбайт (3%)
Язык : English
Default : Нет
Forced : Нет
Текст #1
Идентификатор : 13
Формат : UTF-8
Идентификатор кодека : S_TEXT/UTF8
Идентификатор кодека/Информация : UTF-8 Plain Text
Заголовок : Forced
Язык : Russian
Default : Нет
Forced : Нет
Текст #2
Идентификатор : 14
Формат : UTF-8
Идентификатор кодека : S_TEXT/UTF8
Идентификатор кодека/Информация : UTF-8 Plain Text
Язык : Russian
Default : Нет
Forced : Нет
Текст #3
Идентификатор : 15
Формат : UTF-8
Идентификатор кодека : S_TEXT/UTF8
Идентификатор кодека/Информация : UTF-8 Plain Text
Заголовок : SDH
Язык : English
Default : Нет
Forced : Нет
Меню
00:00:00.000 : en:00:00:00.000
00:13:35.148 : en:00:13:35.148
00:17:38.683 : en:00:17:38.683
00:24:09.323 : en:00:24:09.323
00:29:45.200 : en:00:29:45.200
00:36:55.588 : en:00:36:55.588
00:48:39.291 : en:00:48:39.291
00:59:52.547 : en:00:59:52.547
01:05:16.162 : en:01:05:16.162
01:16:01.432 : en:01:16:01.432
01:23:44.436 : en:01:23:44.436
01:38:02.335 : en:01:38:02.335
01:44:03.571 : en:01:44:03.571
01:56:24.978 : en:01:56:24.978
02:06:02.346 : en:02:06:02.346
-

Скриншоты


-

Доп. информация

ЦитатаКто-то писал:У двухголосого перевода с BD CEE есть непереведенное место. Точно так же было и на Blu-Ray. На это место есть субтитры.
Также форсированные субтитры на перевод Михалёва.
ЦитатаКто-то писал:* Сохранены оригинальные чаптеры как на Blu-ray.
* DTS-HD MA Дорожки получены наложением чистого голоса на центр декодированного DTS-HD MA.
* Карусель, Гаврилов и Гланц с чистых голосов. Гланц наложен в не в свойственной его переводам манере (обычно это близко к "псевдодубляжу) с достаточной задержкой относительно оригинала, Карусель в еще большей степени, Гаврилов - так что бы максимально освободить оригинальный текст.
* Киномания тоже с чистых, но выделенных голосов. Это было необходимо, так как в первоисточнике Киномании дорогу изначально убили перепутав каналы субвуфера и задний левый. Да и всяко DTS получше AC3 384 kbps будет )). Не смотря на то, что голоса выделились отлично - переукладку не делал - положено в тоже место, что и была изначально.
*"Неопознанная" дорога MVO скорее всего является самой старой многоголоской к этой картине, причем далеко не самой плохой - будет неплохо, если кто подскажет её происхождение.
* Дороги Горчакова и молодого Готлиба с VHS, и если дорога Горчакова еще "так себе", то кассета с которой снят Готлиб была, судя по всему , в архиубитом состоянии. Многократные провалы в звуке , особенно в конце ленты. Так что если в начале и средине я ограничивался вставками из оригинала и в одном месте из многоголоски, то в конце пришлось просто фразы переводчика "вклеить" в оригинальную дорогу; соотношения шипа и громкости, скажем осторожно, оставляют желать лучшего. Имеет исключительно "археологическую" ценность . Самое любопытное , что в ней было несколько эпизодов, в том числе и с репликами, которые в анрейтед БД версии отсутствуют. За дорогу спасибо ilbilb с Е-180.
* В чистых голосах 1+1 в промежутке с 0:42 по 1:05 по неизвестной никому причине текст отсутствовал, посему пришлось вырезать реплики из ТВ трансляции 1+1 и с максимальной точностью вставить в то же место, где они находились в ТВ-дороге. В остальной части картины текст был уложен аналогично Карусели - с большЕй свободой для оригинала. В целом получилось не плохо - всяко лучше стерео с трансляции.
* В обох українських доріжках присутній невеличкий півтора хвилинний НЕперекладений шматок, переклад укр.сабiв саме на нього.
* Во всех русских дорожках тот же непереведенный эпизод 01:44:48 - 01:46:10 дополнен вставками из Гланца или Карусели.
ОГРОМНОЕ СПАСИБО:
Sem-te - дорога с Михалевым
stas274 - Remux 1080p
HDClub и Прагматик - за остальные дороги.
 GOLD TORRENT! DOWNLOAD TRAFFIC DOES NOT CONSIDER! 
Torrent: Registered [ 2017-10-09 07:24 ]   · C04F5EFEE23FFECA0EDB309176DE3DBF1DC87EDE

Download .torrent

Download

90 KB

Status: checked
Completed: 0 times
Size: 17.77 GB
Поделиться:
terms.php
[Profile] [PM]
Display posts:    
Reply to topic

Current time is: 28-Nov 17:45

All times are UTC + 3



You cannot post new topics in this forum
You cannot reply to topics in this forum
You cannot edit your posts in this forum
You cannot delete your posts in this forum
You cannot vote in polls in this forum
You cannot attach files in this forum
You can download files in this forum