Kingsman: Секретная служба / Kingsman: The Secret Service (Мэттью Вон / Matthew Vaughn) [2014, Великобритания, Боевик, комедия, криминал, приключения, BDRip-AVC] Dub + Sub Rus,Eng + Original Eng

Reply to topic
DL-List and Torrent activity
Size:  3.36 GB   |    Registered:  2 years 11 months   |    Completed:  0 times

Seeder not seen: Never

 
   
 
 
Author Message

admin ®

Gender: Male

Longevity: 3 years

Posts: 10019

Post 02-Oct-2017 03:43

[Quote]

Kingsman: Секретная службаKingsman: The Secret Service

Страна: Великобритания
Жанр: Боевик, комедия, криминал, приключения
Год выпуска: 2014
Продолжительность: 02:08:44
Перевод: Профессиональный (дублированный) Blu-ray CEE
Субтитры: русские,английские
Оригинальная аудиодорожка: английский
Режиссер: Мэттью Вон / Matthew Vaughn
В ролях: Тэрон Эджертон, Колин Фёрт, Сэмюэл Л. Джексон, Марк Стронг, Софи Куксон, Майкл Кейн, София Бутелла, Саманта Янус, Джофф Белл, Марк Хэмилл
Описание: Эггси — молодой парень, который прошел службу в морской пехоте и имеет очень высокий уровень интеллекта. Он мог бы добиться многого, но выбрал другой путь и стал мелким преступником. Однажды он знакомится с Гарри Хартом, которому его отец когда-то спас жизнь. Этот человек решил сделать все возможное, чтобы сделать жизнь Эггси лучше и открыть для него новые возможности.
Гарри рассказал ему, что является агентом секретной независимой организации, которая стоит на защите всего мира. Он предложил парню пройти обучение и стать новым членом их команды. Эггси принял предложение Харта, но сможет ли он справиться со всеми испытаниями и оправдать его надежды?..
Доп. информация:
Релиз группы:
Сохранены оригинальные главы как на Bluray
Качество видео: BDRip-AVC |Kingsman: Секретная служба / Kingsman: The Secret Service (2014) Blu-ray CEE| HD club
Формат видео: MKV
Видео: 1046x438 (2:40:1), 23,976 fps, 2767 Кbps, 0.252 bit/pixe
Аудио: 48 kHz, AC3 Dolby Digital, 3/2 (L,C,R,l,r) + LFE ch, ~448.00 kbps avg | DUB
Аудио 2: 48 kHz, AC3 Dolby Digital, 3/2 (L,C,R,l,r) + LFE ch, ~448.00 kbps avg | ENG
Формат субтитров: softsub (SRT)
Доп. информация о субтитрах: отключаемые

MediaInfo

General
Unique ID : 202140305213967242302422883456179268064 (0x9812CE8271A165BDB4F7B7B5A52C69E0)
Complete name : E:\Мои рипы\Kingsman Секретная служба\Kingsman Секретная служба by_IVAN@190282.mkv
Format : Matroska
Format version : Version 4 / Version 2
File size : 3.36 GiB
Duration : 2h 8mn
Overall bit rate : 3 737 Kbps
Encoded date : UTC 2016-03-05 01:29:03
Writing application : mkvmerge v8.8.0 ('Wind at my back') 64bit
Writing library : libebml v1.3.3 + libmatroska v1.4.4
Attachements : cover.jpg
DURATION : 02:07:50.162000000
NUMBER_OF_FRAMES : 2122
NUMBER_OF_BYTES : 67106
_STATISTICS_WRITING_APP : mkvmerge v8.8.0 ('Wind at my back') 64bit
_STATISTICS_WRITING_DATE_UT : 2016-03-05 01:29:03
_STATISTICS_TAGS : BPS DURATION NUMBER_OF_FRAMES NUMBER_OF_BYTES
Video
ID : 1
Format : AVC
Format/Info : Advanced Video Codec
Format profile : High@L4.1
Format settings, CABAC : Yes
Format settings, ReFrames : 14 frames
Codec ID : V_MPEG4/ISO/AVC
Duration : 2h 8mn
Bit rate : 2 767 Kbps
Width : 1 046 pixels
Height : 438 pixels
Display aspect ratio : 2.40:1
Frame rate mode : Constant
Frame rate : 23.976 fps
Color space : YUV
Chroma subsampling : 4:2:0
Bit depth : 8 bits
Scan type : Progressive
Bits/(Pixel*Frame) : 0.252
Stream size : 2.49 GiB (74%)
Title : Kingsman Секретная служба by_IVAN@190282
Writing library : x264 core 146 r2538kMod 121396c
Encoding settings : cabac=1 / ref=14 / deblock=1:-3:-2 / analyse=0x3:0x133 / me=umh / subme=11 / psy=1 / fade_compensate=0.00 / psy_rd=1.00:0.05 / mixed_ref=1 / me_range=48 / chroma_me=1 / trellis=2 / 8x8dct=1 / cqm=0 / deadzone=21,11 / fast_pskip=0 / chroma_qp_offset=-3 / threads=6 / lookahead_threads=6 / sliced_threads=0 / nr=0 / decimate=1 / interlaced=0 / bluray_compat=0 / constrained_intra=0 / fgo=0 / bframes=16 / b_pyramid=2 / b_adapt=2 / b_bias=0 / direct=3 / weightb=1 / open_gop=0 / weightp=2 / keyint=240 / keyint_min=23 / scenecut=40 / intra_refresh=0 / rc_lookahead=60 / rc=crf / mbtree=0 / crf=17.4000 / qcomp=0.60 / qpmin=0 / qpmax=69 / qpstep=4 / vbv_maxrate=50000 / vbv_bufsize=62500 / crf_max=0.0 / nal_hrd=none / filler=0 / ip_ratio=1.40 / pb_ratio=1.30 / aq=2:1.80
Language : English
Default : Yes
Forced : No
Color range : Limited
Color primaries : BT.709
Transfer characteristics : BT.709
Matrix coefficients : BT.709
DURATION : 02:08:44.133000000
NUMBER_OF_FRAMES : 185194
NUMBER_OF_BYTES : 2740841337
_STATISTICS_WRITING_APP : mkvmerge v8.8.0 ('Wind at my back') 64bit
_STATISTICS_WRITING_DATE_UT : 2016-03-05 01:29:03
_STATISTICS_TAGS : BPS DURATION NUMBER_OF_FRAMES NUMBER_OF_BYTES
Audio #1
ID : 2
Format : AC-3
Format/Info : Audio Coding 3
Mode extension : CM (complete main)
Format settings, Endianness : Big
Codec ID : A_AC3
Duration : 2h 8mn
Bit rate mode : Constant
Bit rate : 448 Kbps
Channel(s) : 6 channels
Channel positions : Front: L C R, Side: L R, LFE
Sampling rate : 48.0 KHz
Compression mode : Lossy
Stream size : 413 MiB (12%)
Title : Dub
Language : Russian
Default : Yes
Forced : No
Audio #2
ID : 3
Format : AC-3
Format/Info : Audio Coding 3
Mode extension : CM (complete main)
Format settings, Endianness : Big
Codec ID : A_AC3
Duration : 2h 8mn
Bit rate mode : Constant
Bit rate : 448 Kbps
Channel(s) : 6 channels
Channel positions : Front: L C R, Side: L R, LFE
Sampling rate : 48.0 KHz
Compression mode : Lossy
Stream size : 413 MiB (12%)
Title : Eng
Language : English
Default : No
Forced : No
Text #1
ID : 4
Format : UTF-8
Codec ID : S_TEXT/UTF8
Codec ID/Info : UTF-8 Plain Text
Title : Rus
Language : Russian
Default : No
Forced : No
Text #2
ID : 5
Format : UTF-8
Codec ID : S_TEXT/UTF8
Codec ID/Info : UTF-8 Plain Text
Title : Eng
Language : English
Default : No
Forced : No
Menu
00:00:00.000 : en:00:00:00.000
00:02:55.467 : en:00:02:55.467
00:04:50.665 : en:00:04:50.665
00:08:34.180 : en:00:08:34.180
00:11:49.876 : en:00:11:49.876
00:13:04.575 : en:00:13:04.575
00:15:57.999 : en:00:15:57.999
00:18:25.980 : en:00:18:25.980
00:23:48.052 : en:00:23:48.052
00:25:37.327 : en:00:25:37.327
00:29:53.750 : en:00:29:53.750
00:32:25.277 : en:00:32:25.277
00:33:47.901 : en:00:33:47.901
00:37:01.469 : en:00:37:01.469
00:38:49.619 : en:00:38:49.619
00:42:46.022 : en:00:42:46.022
00:45:03.868 : en:00:45:03.868
00:47:42.276 : en:00:47:42.276
00:53:47.558 : en:00:53:47.558
00:57:28.195 : en:00:57:28.195
01:03:29.514 : en:01:03:29.514
01:05:21.876 : en:01:05:21.876
01:10:27.932 : en:01:10:27.932
01:13:10.219 : en:01:13:10.219
01:15:01.956 : en:01:15:01.956
01:16:58.197 : en:01:16:58.197
01:23:03.812 : en:01:23:03.812
01:25:57.402 : en:01:25:57.402
01:31:21.309 : en:01:31:21.309
01:34:38.798 : en:01:34:38.798
01:36:27.949 : en:01:36:27.949
01:39:59.994 : en:01:39:59.994
01:44:07.867 : en:01:44:07.867
01:50:31.083 : en:01:50:31.083
01:58:21.219 : en:01:58:21.219
01:59:38.463 : en:01:59:38.463

x264 log

VIDEO ENCODING
x264 [info]: frame I:1816 Avg QP:15.17 size: 81987 PSNR Mean Y:47.22 U:49.98 V:50.22 Avg:47.98 Global:47.11
x264 [info]: frame P:46158 Avg QP:16.77 size: 29531 PSNR Mean Y:45.98 U:48.58 V:48.75 Avg:46.69 Global:45.58
x264 [info]: frame B:137220 Avg QP:17.64 size: 8955 PSNR Mean Y:45.62 U:48.19 V:48.45 Avg:46.32 Global:45.13
x264 [info]: consecutive B-frames: 4.7% 6.3% 10.5% 19.4% 16.7% 28.0% 6.2% 2.6% 1.8% 0.9% 0.7% 0.6% 0.4% 0.5% 0.2% 0.1% 0.4%
x264 [total]: encoded 185194 frames, 7.52 fps, 2838.73 kb/s, duration 6:50:31.38

Скриншот c названием фильма

Скриншоты

Убедительная просьба пожалуйста кто скачал не бросайте раздачу!!!
 GOLD TORRENT! DOWNLOAD TRAFFIC DOES NOT CONSIDER! 
Torrent: Registered [ 2017-10-02 03:43 ]   · 8A476371571B0EB5D38D5B2A904215C738B367E9

Download .torrent

Download

17 KB

Status: checked
Completed: 0 times
Size: 3.36 GB
Поделиться:
terms.php
[Profile] [PM]
Display posts:    
Reply to topic

Current time is: 27-Sep 15:29

All times are UTC + 3



You cannot post new topics in this forum
You cannot reply to topics in this forum
You cannot edit your posts in this forum
You cannot delete your posts in this forum
You cannot vote in polls in this forum
You cannot attach files in this forum
You can download files in this forum