Живое / Life (Даниэль Эспиноса / Daniel Espinosa) [2017, США, Ужасы, фантастика, триллер, BDRip-AVC] Dub + Sub Rus, Eng + Original Eng

Reply to topic
DL-List and Torrent activity
Size:  2.63 GB   |    Registered:  5 months 24 days   |    Completed:  0 times

Seeder not seen: Never

 
   
 
 
Author Message

admin ®

Gender: Male

Longevity: 3 years 2 months

Posts: 10115

Post 02-Oct-2017 03:35

[Quote]

ЖивоеLife«Умное. Сильное. Бездушное»

Страна: США
Жанр: Ужасы, фантастика, триллер
Год выпуска: 2017
Продолжительность: 01:43:57
Перевод: Профессиональный (дублированный) Bluray EUR
Субтитры: русские форсированные, русские полные, английские
Оригинальная аудиодорожка: английский
Режиссер: Даниэль Эспиноса / Daniel Espinosa
В ролях: Хироюки Санада (Sho Murakami), Райан Рейнольдс (Rory Adams), Ребекка Фергюсон (Miranda North), Джейк Джилленхол (David Jordan), Ольга Дыховичная (Ekaterina Golovkina), Эрион Бакаре (Hugh Derry), Хесус Дель Орден (Student 2), Аллен МакЛин (Student 1), Лейла Грэйс Боствик-Ридделл (Student 3), Мари Гвелесиани (Student 4)
Описание: Группа исследователей с международного космического корабля обнаруживает жизнь на Марсе. Они еще не подозревают, какие события повлечет за собой их открытие.
Доп. информация:
Релиз группы:
Качество видео: BDRip-AVC | Life (2017) 1080p BD-Remux_Bluebird |
Формат видео: MKV
Видео: 1152x482 (2:40:1), 23,976 fps, 2659 Кbps, 0.200 bit/pixe
Аудио: 48 kHz, AC3 Dolby Digital, 3/2 (L,C,R,l,r) + LFE ch, ~448.00 kbps avg DUB
Аудио 2: 48 kHz, AC3 Dolby Digital, 3/2 (L,C,R,l,r) + LFE ch, ~448.00 kbps avg ENG
Формат субтитров: softsub (SRT)
Доп. информация о субтитрах: отключаемые srt

Знаете ли Вы что

• Источником вдохновения для авторов этой картины послужил фильм «Чужой» (1979).
• Актер Райан Рейнольдс и сценаристы Ретт Риз и Пол Верник вместе работали в картине «Дэдпул» (2016).
• Райан Рейнольдс уже снимался в фильме режиссера Даниэля Эспиносы «Код доступа «Кейптаун» (2012).

MediaInfo

General
Unique ID : 216969311164962560080224378658007536363 (0xA33AC4F35F52327396EF72180CF7D2EB)
Complete name : F:\Мои рипы\Живое\Life by_IVAN@190282.mkv
Format : Matroska
Format version : Version 4 / Version 2
File size : 2.63 GiB
Duration : 1h 43mn
Overall bit rate : 3 626 Kbps
Movie name : Life by_IVAN@190282
Encoded date : UTC 2017-08-03 19:44:24
Writing application : mkvmerge v14.0.0 ('Flow') 64bit
Writing library : libebml v1.3.4 + libmatroska v1.4.5
DURATION : 01:35:09.078000000
NUMBER_OF_FRAMES : 1437
NUMBER_OF_BYTES : 43257
_STATISTICS_WRITING_APP : mkvmerge v14.0.0 ('Flow') 64bit
_STATISTICS_WRITING_DATE_UTC : 2017-08-03 19:44:24
_STATISTICS_TAGS : BPS DURATION NUMBER_OF_FRAMES NUMBER_OF_BYTES
Attachment : Yes
Video
ID : 1
Format : AVC
Format/Info : Advanced Video Codec
Format profile : High@L4.1
Format settings, CABAC : Yes
Format settings, ReFrames : 11 frames
Codec ID : V_MPEG4/ISO/AVC
Duration : 1h 43mn
Bit rate : 2 658 Kbps
Width : 1 152 pixels
Height : 482 pixels
Display aspect ratio : 2.40:1
Frame rate mode : Constant
Frame rate : 23.976 fps
Color space : YUV
Chroma subsampling : 4:2:0
Bit depth : 8 bits
Scan type : Progressive
Bits/(Pixel*Frame) : 0.200
Stream size : 1.93 GiB (73%)
Title : Life by_IVAN@190282
Writing library : x264 core 148 r2762 90a61ec
Encoding settings : cabac=1 / ref=11 / deblock=1:-3:-3 / analyse=0x3:0x113 / me=umh / subme=11 / psy=1 / psy_rd=1.00:0.05 / mixed_ref=1 / me_range=48 / chroma_me=1 / trellis=2 / 8x8dct=1 / cqm=0 / deadzone=21,11 / fast_pskip=0 / chroma_qp_offset=-3 / threads=6 / lookahead_threads=6 / sliced_threads=0 / nr=0 / decimate=1 / interlaced=0 / bluray_compat=0 / constrained_intra=0 / bframes=16 / b_pyramid=2 / b_adapt=2 / b_bias=0 / direct=3 / weightb=1 / open_gop=0 / weightp=2 / keyint=240 / keyint_min=23 / scenecut=40 / intra_refresh=0 / rc_lookahead=60 / rc=crf / mbtree=0 / crf=17.0 / qcomp=0.60 / qpmin=0 / qpmax=69 / qpstep=4 / vbv_maxrate=50000 / vbv_bufsize=62500 / crf_max=0.0 / nal_hrd=none / filler=0 / ip_ratio=1.40 / pb_ratio=1.30 / aq=3:0.90
Language : English
Default : Yes
Forced : No
Color primaries : BT.709
Transfer characteristics : BT.709
Matrix coefficients : BT.709
DURATION : 01:43:59.108000000
NUMBER_OF_FRAMES : 149589
NUMBER_OF_BYTES : 2126815977
_STATISTICS_WRITING_APP : mkvmerge v14.0.0 ('Flow') 64bit
_STATISTICS_WRITING_DATE_UTC : 2017-08-03 19:44:24
_STATISTICS_TAGS : BPS DURATION NUMBER_OF_FRAMES NUMBER_OF_BYTES
Audio #1
ID : 2
Format : AC-3
Format/Info : Audio Coding 3
Mode extension : CM (complete main)
Format settings, Endianness : Big
Codec ID : A_AC3
Duration : 1h 43mn
Bit rate mode : Constant
Bit rate : 448 Kbps
Channel(s) : 6 channels
Channel positions : Front: L C R, Side: L R, LFE
Sampling rate : 48.0 KHz
Bit depth : 16 bits
Compression mode : Lossy
Stream size : 333 MiB (12%)
Title : Dub Bluray EUR
Language : Russian
Default : Yes
Forced : No
Audio #2
ID : 3
Format : AC-3
Format/Info : Audio Coding 3
Mode extension : CM (complete main)
Format settings, Endianness : Big
Codec ID : A_AC3
Duration : 1h 43mn
Bit rate mode : Constant
Bit rate : 448 Kbps
Channel(s) : 6 channels
Channel positions : Front: L C R, Side: L R, LFE
Sampling rate : 48.0 KHz
Bit depth : 16 bits
Compression mode : Lossy
Stream size : 333 MiB (12%)
Title : Eng
Language : English
Default : No
Forced : No
Text #1
ID : 4
Format : UTF-8
Codec ID : S_TEXT/UTF8
Codec ID/Info : UTF-8 Plain Text
Title : Rus forsed
Language : Russian
Default : Yes
Forced : No
Text #2
ID : 5
Format : UTF-8
Codec ID : S_TEXT/UTF8
Codec ID/Info : UTF-8 Plain Text
Title : Rus
Language : Russian
Default : No
Forced : No
Text #3
ID : 6
Format : UTF-8
Codec ID : S_TEXT/UTF8
Codec ID/Info : UTF-8 Plain Text
Title : Eng
Language : English
Default : No
Forced : No
Text #4
ID : 7
Format : UTF-8
Codec ID : S_TEXT/UTF8
Codec ID/Info : UTF-8 Plain Text
Title : Eng SDH
Language : English
Default : No
Forced : No
Menu
00:00:00.000 : en:00:00:00.000
00:09:32.862 : en:00:09:32.862
00:13:13.082 : en:00:13:13.082
00:15:36.894 : en:00:15:36.894
00:19:35.339 : en:00:19:35.339
00:24:57.453 : en:00:24:57.453
00:34:36.989 : en:00:34:36.989
00:40:45.107 : en:00:40:45.107
00:43:59.301 : en:00:43:59.301
00:52:21.803 : en:00:52:21.803
00:58:33.927 : en:00:58:33.927
01:06:37.784 : en:01:06:37.784
01:11:43.255 : en:01:11:43.255
01:17:50.872 : en:01:17:50.872
01:22:39.621 : en:01:22:39.621
01:28:34.309 : en:01:28:34.309

x264 log

VIDEO ENCODING
x264 [info]: frame I:1070 Avg QP:14.87 size: 72780 PSNR Mean Y:49.90 U:53.91 V:54.53 Avg:50.82 Global:50.25
x264 [info]: frame P:32604 Avg QP:15.91 size: 29498 PSNR Mean Y:48.47 U:53.15 V:53.74 Avg:49.47 Global:48.57
x264 [info]: frame B:115915 Avg QP:17.57 size: 9379 PSNR Mean Y:47.54 U:52.43 V:53.22 Avg:48.60 Global:47.92
x264 [info]: consecutive B-frames: 2.2% 2.8% 6.5% 25.2% 18.4% 28.3% 6.5% 4.8% 1.6% 0.7% 0.7% 1.1% 0.5% 0.4% 0.1% 0.1% 0.1%
x264 [total]: encoded 149589 frames, 1.50 fps, 2727.08 kb/s

Скриншот c названием фильма

Скриншоты

Убедительная просьба пожалуйста кто скачал не бросайте раздачу!!!
 GOLD TORRENT! DOWNLOAD TRAFFIC DOES NOT CONSIDER! 
Torrent: Registered [ 2020-06-07 03:21 ]   · F5E1B62D1B9744084020B503AF0FE5332121E6C6

Download .torrent

Download

14 KB

Status: checked
Completed: 0 times
Size: 2.63 GB
Поделиться:
terms.php
[Profile] [PM]
Display posts:    
Reply to topic

Current time is: 01-Dec 18:20

All times are UTC + 3



You cannot post new topics in this forum
You cannot reply to topics in this forum
You cannot edit your posts in this forum
You cannot delete your posts in this forum
You cannot vote in polls in this forum
You cannot attach files in this forum
You can download files in this forum