Мы – Миллеры / We're the Millers (Роусон Маршалл Тёрбер / Rawson Marshall Thurber) [2013, США, Комедия, криминал, BDRip-AVC] Dub + Sub Rus, Eng+ Original Eng

Reply to topic
DL-List and Torrent activity
Size:  2.19 GB   |    Registered:  3 months 25 days   |    Completed:  0 times

Seeder not seen: Never

 
   
 
 
Author Message

admin ®

Gender: Male

Longevity: 3 years

Posts: 10018

Post 08-Oct-2017 06:07

[Quote]

Мы – МиллерыWe're the MillersТеатральная версия / Theatrical Cut«Если что, мы - Миллеры»
Страна: США
Жанр: Комедия, криминал
Год выпуска: 2013
Продолжительность: 01:49:53
Перевод: Профессиональный (дублированный) [Лицензия]
Субтитры: русские,английские
Оригинальная аудиодорожка: английский
Режиссер: Роусон Маршалл Тёрбер / Rawson Marshall Thurber
В ролях: Дженнифер Энистон, Джейсон Судейкис, Уилл Поултер, Эмма Робертс, Эд Хелмс, Ник Офферман, Кэтрин Хан, Молли С. Куинн, Томер Сисле, Мэттью Уиллиг
Описание: Дэвид Берк — мелкий торговец наркотиками. Среди его клиентов — повара и скучающие домохозяйки. Детям он наркотики не продаёт и поэтому считает себя принципиальным человеком. Дэвид действительно хорошо относится к детям, но это не остается безнаказанным — он пытается помочь подросткам, попавшим в беду, и на него нападают хулиганы-панки. Они отбирают у него наркотики и деньги, и наш герой оказывается в отчаянном положении. Ведь ему нечем расплатиться с его поставщиком Брэдом. Единственный выход — подрядиться на доставку крупной партии наркотиков через границу…
Доп. информация:

Автор рипа: potroks
Качество видео: BDRip-AVC | Мы - Миллеры / We're the Millers(2013) 1080p BD-Remux|
Формат видео: MKV
Видео: 1052x436 (2,40:1), 23,976 fps, 2078 Кbps, 0.189 bit/pixel
Аудио: 48 kHz, AC3 Dolby Digital, 3/2 (L,C,R,l,r) + LFE ch, 384.00 kbps | RUS
Аудио 2: 48 kHz, AC3 Dolby Digital, 3/2 (L,C,R,l,r) + LFE ch, 384.00 kbps | ENG
Формат субтитров: softsub (SRT)
Доп. информация о субтитрах: отключаемые

MediaInfo

General
Unique ID : 213308380913018373983547883135182859974 (0xA079B32755151864A793FFEFDD1C6EC6)
Complete name : F:\Фильмы\Мы Миллеры\My.Millery.2013.Theatrical..BDRip.x264.mkv
Format : Matroska
Format version : Version 4 / Version 2
File size : 2.19 GiB
Duration : 1h 49mn
Overall bit rate : 2 847 Kbps
Movie name : We're the Millers
Encoded date : UTC 2013-12-22 15:05:07
Writing application : mkvmerge v5.9.0 ('On The Loose') built on Dec 15 2012 16:39:58
Writing library : libebml v1.3.0 + libmatroska v1.4.0
Video
ID : 1
Format : AVC
Format/Info : Advanced Video Codec
Format profile : High@L4.1
Format settings, CABAC : Yes
Format settings, ReFrames : 10 frames
Codec ID : V_MPEG4/ISO/AVC
Duration : 1h 49mn
Bit rate : 2 078 Kbps
Width : 1 052 pixels
Height : 436 pixels
Display aspect ratio : 2.40:1
Frame rate mode : Constant
Frame rate : 23.976 fps
Color space : YUV
Chroma subsampling : 4:2:0
Bit depth : 8 bits
Scan type : Progressive
Bits/(Pixel*Frame) : 0.189
Stream size : 1.55 GiB (71%)
Title : Were The Millers
Writing library : x264 core 130 r2273 b3065e6
Encoding settings : cabac=1 / ref=10 / deblock=1:-2:-2 / analyse=0x3:0x133 / me=umh / subme=11 / psy=1 / psy_rd=1.09:0.01 / mixed_ref=1 / me_range=32 / chroma_me=1 / trellis=2 / 8x8dct=1 / cqm=0 / deadzone=21,11 / fast_pskip=0 / chroma_qp_offset=-3 / threads=9 / lookahead_threads=6 / sliced_threads=0 / nr=0 / decimate=0 / interlaced=0 / bluray_compat=0 / constrained_intra=0 / bframes=11 / b_pyramid=2 / b_adapt=2 / b_bias=0 / direct=3 / weightb=1 / open_gop=0 / weightp=2 / keyint=250 / keyint_min=23 / scenecut=40 / intra_refresh=0 / rc_lookahead=60 / rc=2pass / mbtree=0 / bitrate=2078 / ratetol=1.0 / qcomp=0.70 / qpmin=0 / qpmax=69 / qpstep=4 / cplxblur=20.0 / qblur=0.5 / vbv_maxrate=20000 / vbv_bufsize=20000 / nal_hrd=none / ip_ratio=1.35 / pb_ratio=1.25 / aq=1:0.80
Language : English
Default : Yes
Forced : No
Audio #1
ID : 2
Format : AC-3
Format/Info : Audio Coding 3
Mode extension : CM (complete main)
Format settings, Endianness : Big
Codec ID : A_AC3
Duration : 1h 49mn
Bit rate mode : Constant
Bit rate : 384 Kbps
Channel(s) : 6 channels
Channel positions : Front: L C R, Side: L R, LFE
Sampling rate : 48.0 KHz
Bit depth : 16 bits
Compression mode : Lossy
Stream size : 302 MiB (13%)
Title : Dub | DD 5.1 @ 384 kbps - R5
Language : Russian
Default : Yes
Forced : Yes
Audio #2
ID : 3
Format : AC-3
Format/Info : Audio Coding 3
Mode extension : CM (complete main)
Format settings, Endianness : Big
Codec ID : A_AC3
Duration : 1h 49mn
Bit rate mode : Constant
Bit rate : 384 Kbps
Channel(s) : 6 channels
Channel positions : Front: L C R, Side: L R, LFE
Sampling rate : 48.0 KHz
Bit depth : 16 bits
Compression mode : Lossy
Stream size : 302 MiB (13%)
Title : Original | DD 5.1 @ 384 kbps
Language : English
Default : No
Forced : No
Text #1
ID : 4
Format : UTF-8
Codec ID : S_TEXT/UTF8
Codec ID/Info : UTF-8 Plain Text
Language : Russian
Default : No
Forced : No
Text #2
ID : 5
Format : UTF-8
Codec ID : S_TEXT/UTF8
Codec ID/Info : UTF-8 Plain Text
Title : SDH
Language : English
Default : No
Forced : No
Menu
00:00:00.000 : en:(01)00:00:00:000
00:09:20.059 : en:(02)00:09:20:059
00:20:16.048 : en:(03)00:20:16:048
00:30:27.492 : en:(04)00:30:27:492
00:41:18.475 : en:(05)00:41:18:475
00:51:17.324 : en:(06)00:51:17:324
01:00:08.438 : en:(07)01:00:08:438
01:09:57.651 : en:(08)01:09:57:651
01:20:18.813 : en:(09)01:20:18:813
01:29:12.638 : en:(10)01:29:12:638
01:40:18.512 : en:(11)01:40:18:512
01:43:21.111 : en:(12)01:43:21:111
01:49:53.336 : en:(13)01:49:53:336

Скриншот c названием фильма

Скриншоты

 GOLD TORRENT! DOWNLOAD TRAFFIC DOES NOT CONSIDER! 
Torrent: Registered [ 2020-06-06 06:46 ]   · D32894AD5F4CB55E0D4BAA897F06E71E91C253BB

Download .torrent

Download

11 KB

Status: checked
Completed: 0 times
Size: 2.19 GB
Поделиться:
terms.php
[Profile] [PM]
Display posts:    
Reply to topic

Current time is: 01-Oct 18:34

All times are UTC + 3



You cannot post new topics in this forum
You cannot reply to topics in this forum
You cannot edit your posts in this forum
You cannot delete your posts in this forum
You cannot vote in polls in this forum
You cannot attach files in this forum
You can download files in this forum