Астрал 3 / Insidious: Chapter 3 (Ли Уоннелл / Leigh Whannell) [2015, США, Ужасы, триллер, драма, BDRip-AVC] Dub + Sub Rus, Eng + Original Eng

Reply to topic
DL-List and Torrent activity
Size:  1.99 GB   |    Registered:  2 years 11 months   |    Completed:  0 times

Seeder not seen: Never

Leechers:  3  [  0 KB/s  ]   Show peers in full details
 
   
 
 
Author Message

admin ®

Gender: Male

Longevity: 3 years

Posts: 10017

Post 08-Oct-2017 05:52

[Quote]

Астрал 3Insidious: Chapter 3«У каждой истории есть начало...»

Страна: США
Жанр: Ужасы, триллер, драма
Год выпуска: 2015
Продолжительность: 01:37:21
Перевод: Профессиональный (дублированный) Bluray CEE
Субтитры: русские,английские
Оригинальная аудиодорожка: английский
Режиссер: Ли Уоннелл / Leigh Whannell
В ролях: Стефани Скотт, Лин Шэй, Дермот Малруни, Энгус Сэмпсон, Ли Уоннелл, Тейт Берни, Майкл Рид МакКей, Стив Култер, Хейли Кийоко, Корбетт Так
Описание: История о том, как одаренный экстрасенс Элис Рейнер неохотно соглашается использовать свои способности для установления связи с мертвыми, чтобы помочь девочке-подростку, которая стала мишенью для опасной сверхъестественной сущности.
Доп. информация:
Релиз группы:
Сохранены оригинальные главы как на Bluray
Качество видео: BDRip-AVC | Астрал 3 / Insidious: Chapter 3 (2015) 1080p BD-Remux|HD Club|
Формат видео: MKV
Видео: 1140x478 (2:40:1), 23,976 fps, 1965 Кbps, 0.150 bit/pixe
Аудио: 48 kHz, AC3 Dolby Digital, 3/2 (L,C,R,l,r) + LFE ch, ~448.00 kbps avg DUB
Аудио 2: 48 kHz, AC3 Dolby Digital, 3/2 (L,C,R,l,r) + LFE ch, ~448.00 kbps avg ENG
Формат субтитров: softsub (SRT)
Доп. информация о субтитрах: отключаемые

Знаете ли Вы что

• Фильм является приквелом двух предыдущих картин.
• Режиссерский дебют Ли Уоннелла и первый фильм ужасов в фильмографии Стефани Скотт.
• Джеймс Ван не смог заниматься режиссурой этого фильма из-за занятости в фильме «Форсаж 7» (2015). Однако он снялся в эпизодической роли одного из членов жюри, при прослушивании Куин Бреннер.
• Релиз трейлера фильма состоялся в марте 2015 и содержал песню Шэрон Ван Эттен — «Afraid of Nothing». Композицию добавили в фильм без приобретения прав на нее. После того как поклонник Ван Эттен оповестил певицу об этом в твиттере, она заставила создателей фильма заплатить за нелегальное использование ее творчества.
• Ли Уоннелл провел юную Стефани Скотт по всем кругам ада в особенно напряженных сценах. Особенно эффективной была подготовка к сценам, в которых Куинн Бреннер оказывалась под воздействием потусторонних сил. Уоннелл запирал актрису в темной кладовке и заставлял около получаса слушать мрачную музыку в кромешном мраке. Чтобы ни у кого из коллег не было желания высвободить ее из этого «плена», снаружи стоял охранник. Периодически Ли врывался в кладовку и проверял, не убавила ли актриса громкость наушников.

MediaInfo

General
Unique ID : 208641861629103312562817444197995716768 (0x9CF6F5FD4EC5B7FDACCEEBDCA0C520A0)
Complete name : D:\Мои рипы\Астрал 3\Insidious Chapter 3 by_IVAN@190282.mkv
Format : Matroska
Format version : Version 4 / Version 2
File size : 1.99 GiB
Duration : 1h 37mn
Overall bit rate : 2 919 Kbps
Movie name : Insidious Chapter 3 by_IVAN@190282
Encoded date : UTC 2016-03-01 01:28:12
Writing application : mkvmerge v8.8.0 ('Wind at my back') 64bit
Writing library : libebml v1.3.3 + libmatroska v1.4.4
Attachements : cover.jpg
DURATION : 01:27:20.569000000
NUMBER_OF_FRAMES : 768
NUMBER_OF_BYTES : 26800
_STATISTICS_WRITING_APP : mkvmerge v8.8.0 ('Wind at my back') 64bit
_STATISTICS_WRITING_DATE_UT : 2016-03-01 01:28:12
_STATISTICS_TAGS : BPS DURATION NUMBER_OF_FRAMES NUMBER_OF_BYTES
Video
ID : 1
Format : AVC
Format/Info : Advanced Video Codec
Format profile : High@L4.1
Format settings, CABAC : Yes
Format settings, ReFrames : 12 frames
Codec ID : V_MPEG4/ISO/AVC
Duration : 1h 37mn
Bit rate : 1 965 Kbps
Width : 1 140 pixels
Height : 478 pixels
Display aspect ratio : 2.40:1
Frame rate mode : Constant
Frame rate : 23.976 fps
Color space : YUV
Chroma subsampling : 4:2:0
Bit depth : 8 bits
Scan type : Progressive
Bits/(Pixel*Frame) : 0.150
Stream size : 1.34 GiB (67%)
Title : Insidious Chapter 3 by_IVAN@190282
Writing library : x264 core 148 r2597kMod e86f3a1
Encoding settings : cabac=1 / ref=12 / deblock=1:-3:-3 / analyse=0x3:0x133 / me=umh / subme=11 / psy=1 / fade_compensate=0.00 / psy_rd=1.00:0.05 / mixed_ref=1 / me_range=48 / chroma_me=1 / trellis=2 / 8x8dct=1 / cqm=0 / deadzone=21,11 / fast_pskip=0 / chroma_qp_offset=-3 / threads=6 / lookahead_threads=6 / sliced_threads=0 / nr=0 / decimate=1 / interlaced=0 / bluray_compat=0 / constrained_intra=0 / fgo=0 / bframes=16 / b_pyramid=2 / b_adapt=2 / b_bias=0 / direct=3 / weightb=1 / open_gop=0 / weightp=2 / keyint=240 / keyint_min=23 / scenecut=40 / intra_refresh=0 / rc_lookahead=60 / rc=crf / mbtree=0 / crf=17.4000 / qcomp=0.60 / qpmin=0 / qpmax=69 / qpstep=4 / vbv_maxrate=50000 / vbv_bufsize=62500 / crf_max=0.0 / nal_hrd=none / filler=0 / ip_ratio=1.40 / pb_ratio=1.30 / aq=2:1.10
Language : English
Default : Yes
Forced : No
Color range : Limited
Color primaries : BT.709
Transfer characteristics : BT.709
Matrix coefficients : BT.709
DURATION : 01:37:21.836000000
NUMBER_OF_FRAMES : 140064
NUMBER_OF_BYTES : 1476005474
_STATISTICS_WRITING_APP : mkvmerge v8.8.0 ('Wind at my back') 64bit
_STATISTICS_WRITING_DATE_UT : 2016-03-01 01:28:12
_STATISTICS_TAGS : BPS DURATION NUMBER_OF_FRAMES NUMBER_OF_BYTES
Audio #1
ID : 2
Format : AC-3
Format/Info : Audio Coding 3
Mode extension : CM (complete main)
Format settings, Endianness : Big
Codec ID : A_AC3
Duration : 1h 37mn
Bit rate mode : Constant
Bit rate : 448 Kbps
Channel(s) : 6 channels
Channel positions : Front: L C R, Side: L R, LFE
Sampling rate : 48.0 KHz
Compression mode : Lossy
Stream size : 312 MiB (15%)
Title : Dub BD CEE
Default : Yes
Forced : No
Audio #2
ID : 3
Format : AC-3
Format/Info : Audio Coding 3
Mode extension : CM (complete main)
Format settings, Endianness : Big
Codec ID : A_AC3
Duration : 1h 37mn
Bit rate mode : Constant
Bit rate : 448 Kbps
Channel(s) : 6 channels
Channel positions : Front: L C R, Side: L R, LFE
Sampling rate : 48.0 KHz
Compression mode : Lossy
Stream size : 312 MiB (15%)
Title : Eng
Language : English
Default : No
Forced : No
Text #1
ID : 4
Format : UTF-8
Codec ID : S_TEXT/UTF8
Codec ID/Info : UTF-8 Plain Text
Title : Rus forsed
Default : Yes
Forced : Yes
Text #2
ID : 5
Format : UTF-8
Codec ID : S_TEXT/UTF8
Codec ID/Info : UTF-8 Plain Text
Title : Rus
Default : No
Forced : No
Text #3
ID : 6
Format : UTF-8
Codec ID : S_TEXT/UTF8
Codec ID/Info : UTF-8 Plain Text
Title : Eng
Language : English
Default : No
Forced : No
Text #4
ID : 7
Format : UTF-8
Codec ID : S_TEXT/UTF8
Codec ID/Info : UTF-8 Plain Text
Title : Eng SDH
Language : English
Default : No
Forced : No
Menu
00:00:00.000 : en:Chapter 1
00:11:02.620 : en:Chapter 2
00:15:10.242 : en:Chapter 3
00:20:14.379 : en:Chapter 4
00:26:15.532 : en:Chapter 5
00:33:00.979 : en:Chapter 6
00:38:09.328 : en:Chapter 7
00:41:51.133 : en:Chapter 8
00:45:27.266 : en:Chapter 9
00:49:39.893 : en:Chapter 10
00:54:36.731 : en:Chapter 11
01:01:02.450 : en:Chapter 12
01:05:06.444 : en:Chapter 13
01:11:54.768 : en:Chapter 14
01:16:33.589 : en:Chapter 15
01:27:24.239 : en:Chapter 16

x264 log

VIDEO ENCODING
x264 [info]: frame I:1004 Avg QP:14.92 size: 67887 PSNR Mean Y:49.55 U:52.44 V:53.20 Avg:50.35 Global:49.94
x264 [info]: frame P:28635 Avg QP:15.99 size: 23582 PSNR Mean Y:47.97 U:51.41 V:52.28 Avg:48.82 Global:48.25
x264 [info]: frame B:110425 Avg QP:17.71 size: 6634 PSNR Mean Y:47.32 U:50.79 V:51.86 Avg:48.21 Global:47.73
x264 [info]: consecutive B-frames: 1.8% 2.1% 4.8% 20.1% 17.7% 32.9% 8.7% 8.0% 1.8% 0.7% 0.4% 0.6% 0.2% 0.2% 0.1% 0.0% 0.0%
x264 [total]: encoded 140064 frames, 8.11 fps, 2021.29 kb/s, duration 4:47:40.98

Скриншот c названием фильма

Скриншоты

Убедительная просьба пожалуйста кто скачал не бросайте раздачу!!!
 GOLD TORRENT! DOWNLOAD TRAFFIC DOES NOT CONSIDER! 
Torrent: Registered [ 2017-10-08 05:52 ]   · 393C9EDDE55D118645E811AB81426D8814E19C69

Download .torrent

Download

20 KB

Status: checked
Completed: 0 times
Size: 1.99 GB
Поделиться:
terms.php
[Profile] [PM]
Display posts:    
Reply to topic

Current time is: 28-Sep 08:04

All times are UTC + 3



You cannot post new topics in this forum
You cannot reply to topics in this forum
You cannot edit your posts in this forum
You cannot delete your posts in this forum
You cannot vote in polls in this forum
You cannot attach files in this forum
You can download files in this forum