Земля будущего / Tomorrowland (Брэд Бёрд / Brad Bird) [2015, США, Испания, Фантастика, боевик, детектив, приключения, семейны, BDRip-AVC] Dub + Sub Rus, Eng + Original Eng

Reply to topic
DL-List and Torrent activity
Size:  4.51 GB   |    Registered:  4 months 21 day   |    Completed:  0 times

Seeder not seen: Never

 
   
 
 
Author Message

admin ®

Gender: Male

Longevity: 3 years 1 month

Posts: 10044

Post 08-Oct-2017 05:39

[Quote]

Земля будущегоTomorrowland«Представьте мир, где возможно всё»

Страна: США, Испания
Жанр: Фантастика, боевик, детектив, приключения, семейный
Год выпуска: 2015
Продолжительность: 02:10:03
Перевод: Профессиональный (дублированный) Bluray
Субтитры: русские,английские
Оригинальная аудиодорожка: английский
Режиссер: Брэд Бёрд / Brad Bird
В ролях: Бритт Робертсон, Джордж Клуни, Рэффи Кэссиди, Хью Лори, Тим МакГроу, Кэтрин Хан, Кигэн-Майкл Ки, Кристофер Бауэр, Томас Робинсон, Пирс Гэнон
Описание: Когда в руки к молодой девушке, жаждущей новых приключений, попадает загадочный предмет, открывающий доступ в параллельную реальность, она вынуждена обратиться за помощью к циничному гению-изобретателю Фрэнку. Кейси должна убедить бывшего вундеркинда раскрыть ей тайну загадочного места, находящегося вне привычной реальности, известного как Земля будущего, и убедить Фрэнка вернуться туда, откуда его однажды изгнали…
Доп. информация:
Релиз группы:
Сохранены оригинальные главы как на Bluray
Качество видео: BDRip-AVC | Земля будущего / Tomorrowland (2015) 1080p BD-Remux|HD Club|
Формат видео: MKV
Видео: 1136x516 (2:2:1), 23,976 fps, 3967 Кbps, 0.282 bit/pixe
Аудио: 48 kHz, AC3 Dolby Digital, 3/2 (L,C,R,l,r) + LFE ch, ~448.00 kbps avg DUB
Аудио 2: 48 kHz, AC3 Dolby Digital, 3/2 (L,C,R,l,r) + LFE ch, ~448.00 kbps avg ENG
Формат субтитров: softsub (SRT)
Доп. информация о субтитрах: отключаемые

MediaInfo

General
Unique ID : 185808331417657699519697086605216850563 (0x8BC9620850DA12AF876627230D3E2283)
Complete name : D:\Мои рипы\Земля будущего\Tomorrowland by_IVAN@.190282.mkv
Format : Matroska
Format version : Version 4 / Version 2
File size : 4.51 GiB
Duration : 2h 10mn
Overall bit rate : 4 959 Kbps
Encoded date : UTC 2016-02-27 18:05:24
Writing application : mkvmerge v8.8.0 ('Wind at my back') 64bit
Writing library : libebml v1.3.3 + libmatroska v1.4.4
Attachements : cover.jpg
DURATION : 01:58:18.884000000
NUMBER_OF_FRAMES : 1294
NUMBER_OF_BYTES : 42729
_STATISTICS_WRITING_APP : mkvmerge v8.8.0 ('Wind at my back') 64bit
_STATISTICS_WRITING_DATE_UT : 2016-02-27 18:05:24
_STATISTICS_TAGS : BPS DURATION NUMBER_OF_FRAMES NUMBER_OF_BYTES
Video
ID : 1
Format : AVC
Format/Info : Advanced Video Codec
Format profile : High@L4.1
Format settings, CABAC : Yes
Format settings, ReFrames : 12 frames
Codec ID : V_MPEG4/ISO/AVC
Duration : 2h 10mn
Bit rate : 3 965 Kbps
Width : 1 136 pixels
Height : 516 pixels
Display aspect ratio : 2.2:1
Frame rate mode : Constant
Frame rate : 23.976 fps
Color space : YUV
Chroma subsampling : 4:2:0
Bit depth : 8 bits
Scan type : Progressive
Bits/(Pixel*Frame) : 0.282
Stream size : 3.61 GiB (80%)
Title : Tomorrowland by_IVAN@190282
Writing library : x264 core 148 r2597kMod e86f3a1
Encoding settings : cabac=1 / ref=12 / deblock=1:-3:-3 / analyse=0x3:0x133 / me=umh / subme=11 / psy=1 / fade_compensate=0.00 / psy_rd=1.00:0.05 / mixed_ref=1 / me_range=48 / chroma_me=1 / trellis=2 / 8x8dct=1 / cqm=0 / deadzone=21,11 / fast_pskip=0 / chroma_qp_offset=-3 / threads=6 / lookahead_threads=6 / sliced_threads=0 / nr=0 / decimate=1 / interlaced=0 / bluray_compat=0 / constrained_intra=0 / fgo=0 / bframes=16 / b_pyramid=2 / b_adapt=2 / b_bias=0 / direct=3 / weightb=1 / open_gop=0 / weightp=2 / keyint=240 / keyint_min=23 / scenecut=40 / intra_refresh=0 / rc_lookahead=60 / rc=crf / mbtree=0 / crf=16.7000 / qcomp=0.60 / qpmin=0 / qpmax=69 / qpstep=4 / vbv_maxrate=50000 / vbv_bufsize=62500 / crf_max=0.0 / nal_hrd=none / filler=0 / ip_ratio=1.40 / pb_ratio=1.30 / aq=2:1.10
Language : English
Default : Yes
Forced : No
Color range : Limited
Color primaries : BT.709
Transfer characteristics : BT.709
Matrix coefficients : BT.709
DURATION : 02:10:19.937000000
NUMBER_OF_FRAMES : 187491
NUMBER_OF_BYTES : 3971352090
_STATISTICS_WRITING_APP : mkvmerge v8.8.0 ('Wind at my back') 64bit
_STATISTICS_WRITING_DATE_UT : 2016-02-27 18:05:24
_STATISTICS_TAGS : BPS DURATION NUMBER_OF_FRAMES NUMBER_OF_BYTES
Audio #1
ID : 2
Format : AC-3
Format/Info : Audio Coding 3
Mode extension : CM (complete main)
Format settings, Endianness : Big
Codec ID : A_AC3
Duration : 2h 10mn
Bit rate mode : Constant
Bit rate : 448 Kbps
Channel(s) : 6 channels
Channel positions : Front: L C R, Side: L R, LFE
Sampling rate : 48.0 KHz
Compression mode : Lossy
Stream size : 418 MiB (9%)
Title : Dub
Default : Yes
Forced : No
Audio #2
ID : 3
Format : AC-3
Format/Info : Audio Coding 3
Mode extension : CM (complete main)
Format settings, Endianness : Big
Codec ID : A_AC3
Duration : 2h 10mn
Bit rate mode : Constant
Bit rate : 448 Kbps
Channel(s) : 6 channels
Channel positions : Front: L C R, Side: L R, LFE
Sampling rate : 48.0 KHz
Compression mode : Lossy
Stream size : 418 MiB (9%)
Title : Eng
Language : English
Default : No
Forced : No
Text #1
ID : 4
Format : UTF-8
Codec ID : S_TEXT/UTF8
Codec ID/Info : UTF-8 Plain Text
Title : Rus forsed
Default : Yes
Forced : Yes
Text #2
ID : 5
Format : UTF-8
Codec ID : S_TEXT/UTF8
Codec ID/Info : UTF-8 Plain Text
Title : Rus
Default : No
Forced : No
Text #3
ID : 6
Format : UTF-8
Codec ID : S_TEXT/UTF8
Codec ID/Info : UTF-8 Plain Text
Title : Eng
Language : English
Default : No
Forced : No
Menu
00:00:00.000 : en:A Story About the Future
00:16:12.012 : en:Sabotage
00:21:56.565 : en:Discovering the Pin
00:28:52.188 : en:Exploring Tomorrowland
00:37:37.046 : en:Blast from the Past
00:46:35.417 : en:Athena
00:55:01.047 : en:Frank's House
01:11:48.470 : en:The Journey Begins
01:19:18.086 : en:Eiffel Antenna
01:26:45.033 : en:Welcome Back
01:30:57.702 : en:The Monitor
01:38:05.296 : en:Changing the Future
01:49:50.500 : en:Saying Goodbye
01:56:11.297 : en:Making It Work
02:01:26.946 : en:End Credits

x264 log

VIDEO ENCODING
x264 [info]: frame I:1445 Avg QP:15.09 size:103145 PSNR Mean Y:47.79 U:50.97 V:51.11 Avg:48.59 Global:47.87
x264 [info]: frame P:50451 Avg QP:16.86 size: 38776 PSNR Mean Y:46.30 U:49.84 V:49.71 Avg:47.14 Global:46.15
x264 [info]: frame B:135595 Avg QP:19.18 size: 13762 PSNR Mean Y:45.45 U:49.31 V:49.46 Avg:46.36 Global:45.36
x264 [info]: consecutive B-frames: 5.8% 6.0% 11.5% 23.0% 18.6% 28.8% 3.4% 1.0% 0.6% 0.3% 0.2% 0.2% 0.1% 0.1% 0.1% 0.0% 0.3%
x264 [total]: encoded 187491 frames, 3.33 fps, 4062.80 kb/s, duration 15:37:59.97

Скриншот c названием фильма

Скриншоты

Убедительная просьба пожалуйста кто скачал не бросайте раздачу!!!
 GOLD TORRENT! DOWNLOAD TRAFFIC DOES NOT CONSIDER! 
Torrent: Registered [ 2020-06-06 06:50 ]   · 703B8CDEE3FC48C956D2B349DB04B12299A99BDA

Download .torrent

Download

12 KB

Status: checked
Completed: 0 times
Size: 4.51 GB
Поделиться:
terms.php
[Profile] [PM]
Display posts:    
Reply to topic

Current time is: 28-Oct 02:30

All times are UTC + 3



You cannot post new topics in this forum
You cannot reply to topics in this forum
You cannot edit your posts in this forum
You cannot delete your posts in this forum
You cannot vote in polls in this forum
You cannot attach files in this forum
You can download files in this forum