Пиксели / Pixels (Крис Коламбус / Chris Columbus) [2015, США, Китай, Канада, Фантастика, боевик, комедия, BDRip-AVC] Dub + Sub Rus, Eng + Original Eng

Reply to topic
DL-List and Torrent activity
Size:  2.72 GB   |    Registered:  3 years 1 month   |    Completed:  0 times

Seeder not seen: Never

 
   
 
 
Author Message

admin ®

Gender: Male

Longevity: 3 years 2 months

Posts: 10115

Post 08-Oct-2017 05:34

[Quote]

ПикселиPixels«It's time to save the World»

Страна: США, Китай, Канада
Жанр: Фантастика, боевик, комедия
Год выпуска: 2015
Продолжительность: 01:45:49
Перевод: Профессиональный (дублированный) BD CEE
Субтитры: русские,английские
Оригинальная аудиодорожка: английский
Режиссер: Крис Коламбус / Chris Columbus
В ролях: Адам Сэндлер, Кевин Джеймс, Мишель Монахэн, Питер Динклэйдж, Джош Гад, Брайан Кокс, Мэттью Линтц, Шон Бин, Джейн Краковски, Дэн Эйкройд
Описание: Очередное вторжение инопланетян на Землю... Вы скажете: «Что может быть банальнее?!». Да, если бы на этот раз они не предстали в виде героев вселенски популярных компьютерных игр. Сражаться с пришельцами призвана команда бывших геймеров, в числе которых: Президент Соединенных Штатов Америки; карлик-зэк, большой ценитель прекрасного пола; зануда-параноик, свято верящий в теорию вселенского заговора; профессиональный неудачник и циник, в детстве подававший большие надежды. А помогает новоиспеченным героям очаровательная ученая фея
Доп. информация:
Релиз группы:
Сохранены оригинальные главы как на Bluray
Качество видео: BDRip-AVC | Пиксели / Pixels (2015) Blu-ray CEE 1080p AVC DD5.1|HD Club|
Формат видео: MKV
Видео: 1138x476 (2:40:1), 23,976 fps, 2711 Кbps, 0.209 bit/pixe
Аудио: 48 kHz, AC3 Dolby Digital, 3/2 (L,C,R,l,r) + LFE ch, ~448.00 kbps avg DUB
Аудио 2: 48 kHz, AC3 Dolby Digital, 3/2 (L,C,R,l,r) + LFE ch, ~448.00 kbps avg ENG
Формат субтитров: softsub (SRT)
Доп. информация о субтитрах: оключаемые

Знаете ли Вы что

• Дженнифер Энистон отказалась исполнить роль, которую в итоге сыграла Мишель Монахэн.
• Персонаж Денниса Акаямы, профессор Иватани, был основан на реальном создателе игры Pac-Man – Тору Иватани (Toru Iwatani).
• Для съемок фильма разыскали сотни настоящих игровых автоматов. Каждый из них был отремонтирован. Процесс этот был достаточно трудоемким — к каждому автомату приходилось подбирать требуемые наклейки, обновлять короб, вставлять новые жидкокристаллические дисплеи и всю прочую электронную начинку. Прежде чем попасть на съемочную площадку, каждый игровой автомат должен был быть одобрен компанией, которая представляла на рынке соответствующую торговую марку.
• Декорации платформ из игры Donkey Kong были выстроены на площадке Mega Stage студии Pinewood Toronto Studios. Общая высота конструкции составила более 20 метров.
• Создатели фильма перебрали 222 комбинации различных нарядов и причесок при создании костюма Леди Лизы (вымышленной героини аркадной игры 1980-х под названием Dojo Quest).
• Максимальное количество очков набранное в играх в фильме основывалось на реальных рекордах. Набранные Сэмом Бреннером 3 333 360 очков в игре «Pac-Man» — это количество очков, получаемое при идеальном прохождении игры. Впервые такого результата достиг Билли Митчелл (Billy Mitchell). 16 389 548 очков, которые набрал Ладлоу в игре «Centipede», это результат лишь на одно очко превышающий реальный мировой рекорд Джима Шнайдера (Jim Schneider). В игре «Donkey Kong» Эдди набирает 1 068 100 очков — этот результат на 100 очков превышает мировой рекорд Хэнка Чена (Hank Chien).
• Фамилия персонажа Джоша Гада – Ламонсофф. Эта фамилия часто встречается в фильмах с Адамом Сэндлером и является отсылкой к его соседу по комнате из колледжа – Эрику Ламонсоффу.

Ошибки в фильме

• Начало фильма приходится на знойное лето 1982 года. Юные аркадные геймеры обсуждают поп-звезд, среди которых упоминаются Мадонна и Саманта Фокс. Но дебютный альбом Мадонны вышел годом позже и остался тогда незамеченным и в том же анахроничном 1983-м родители Саманты Фокс только отправили фотографии дочери на конкурс начинающих моделей «Face and Shape of 1983», так что ни о какой музыкальной карьере Саманты речь в то время не шла.
• На базе, во время подготовки к нападению инопланетян, мальчишка играет в игру The Last of Us, но при смене кадра видно, что DualShock4 не активен, хотя при игре у него должна гореть световая панель.
Хотя фильм и называется «Пиксели», но на самом деле атакующие пришельцы состоят из вокселей.
• В начале фильма, когда герой Адама Сендлера подключает PS4 к телевизору, на экране TV видно меню консоли, в следующем кадре видно, что шнур HDMI у него в руке и он не подключен к PS4.

MediaInfo

General
Unique ID : 183102346500375720968993601426841099035 (0x89C03AACEF1D8315B000BF214A4F5B1B)
Complete name : D:\Мои рипы\Пиксели BD CEE\Pixels by_IVAN@190282.mkv
Format : Matroska
Format version : Version 4 / Version 2
File size : 2.72 GiB
Duration : 1h 45mn
Overall bit rate : 3 680 Kbps
Encoded date : UTC 2016-02-29 13:13:21
Writing application : mkvmerge v8.8.0 ('Wind at my back') 64bit
Writing library : libebml v1.3.3 + libmatroska v1.4.4
Attachements : cover.jpg
DURATION : 01:36:22.694000000
NUMBER_OF_FRAMES : 1511
NUMBER_OF_BYTES : 53560
_STATISTICS_WRITING_APP : mkvmerge v8.8.0 ('Wind at my back') 64bit
_STATISTICS_WRITING_DATE_UT : 2016-02-29 13:13:21
_STATISTICS_TAGS : BPS DURATION NUMBER_OF_FRAMES NUMBER_OF_BYTES
Video
ID : 1
Format : AVC
Format/Info : Advanced Video Codec
Format profile : High@L4.1
Format settings, CABAC : Yes
Format settings, ReFrames : 11 frames
Codec ID : V_MPEG4/ISO/AVC
Duration : 1h 45mn
Bit rate : 2 711 Kbps
Width : 1 138 pixels
Height : 476 pixels
Display aspect ratio : 2.40:1
Frame rate mode : Constant
Frame rate : 23.976 fps
Color space : YUV
Chroma subsampling : 4:2:0
Bit depth : 8 bits
Scan type : Progressive
Bits/(Pixel*Frame) : 0.209
Stream size : 2.00 GiB (74%)
Title : Pixels by_IVAN@190282
Writing library : x264 core 148 r2597kMod e86f3a1
Encoding settings : cabac=1 / ref=11 / deblock=1:-3:-3 / analyse=0x3:0x133 / me=umh / subme=11 / psy=1 / fade_compensate=0.00 / psy_rd=1.00:0.05 / mixed_ref=1 / me_range=48 / chroma_me=1 / trellis=2 / 8x8dct=1 / cqm=0 / deadzone=21,11 / fast_pskip=0 / chroma_qp_offset=-3 / threads=6 / lookahead_threads=6 / sliced_threads=0 / nr=0 / decimate=1 / interlaced=0 / bluray_compat=0 / constrained_intra=0 / fgo=0 / bframes=16 / b_pyramid=2 / b_adapt=2 / b_bias=0 / direct=3 / weightb=1 / open_gop=0 / weightp=2 / keyint=240 / keyint_min=23 / scenecut=40 / intra_refresh=0 / rc_lookahead=60 / rc=crf / mbtree=0 / crf=17.0000 / qcomp=0.60 / qpmin=0 / qpmax=69 / qpstep=4 / vbv_maxrate=50000 / vbv_bufsize=62500 / crf_max=0.0 / nal_hrd=none / filler=0 / ip_ratio=1.40 / pb_ratio=1.30 / aq=2:1.10
Language : English
Default : Yes
Forced : No
Color range : Limited
Color primaries : BT.709
Transfer characteristics : BT.709
Matrix coefficients : BT.709
DURATION : 01:45:49.260000000
NUMBER_OF_FRAMES : 152230
NUMBER_OF_BYTES : 2207450621
_STATISTICS_WRITING_APP : mkvmerge v8.8.0 ('Wind at my back') 64bit
_STATISTICS_WRITING_DATE_UT : 2016-02-29 13:13:21
_STATISTICS_TAGS : BPS DURATION NUMBER_OF_FRAMES NUMBER_OF_BYTES
Audio #1
ID : 2
Format : AC-3
Format/Info : Audio Coding 3
Mode extension : CM (complete main)
Format settings, Endianness : Big
Codec ID : A_AC3
Duration : 1h 45mn
Bit rate mode : Constant
Bit rate : 448 Kbps
Channel(s) : 6 channels
Channel positions : Front: L C R, Side: L R, LFE
Sampling rate : 48.0 KHz
Compression mode : Lossy
Stream size : 339 MiB (12%)
Title : Dub BD CEE
Default : Yes
Forced : No
Audio #2
ID : 3
Format : AC-3
Format/Info : Audio Coding 3
Mode extension : CM (complete main)
Format settings, Endianness : Big
Codec ID : A_AC3
Duration : 1h 45mn
Bit rate mode : Constant
Bit rate : 448 Kbps
Channel(s) : 6 channels
Channel positions : Front: L C R, Side: L R, LFE
Sampling rate : 48.0 KHz
Compression mode : Lossy
Stream size : 339 MiB (12%)
Title : Eng
Language : English
Default : No
Forced : No
Text #1
ID : 4
Format : UTF-8
Codec ID : S_TEXT/UTF8
Codec ID/Info : UTF-8 Plain Text
Title : Rus forsed
Default : Yes
Forced : Yes
Text #2
ID : 5
Format : UTF-8
Codec ID : S_TEXT/UTF8
Codec ID/Info : UTF-8 Plain Text
Title : Rus
Default : No
Forced : No
Text #3
ID : 6
Format : UTF-8
Codec ID : S_TEXT/UTF8
Codec ID/Info : UTF-8 Plain Text
Title : Eng
Language : English
Default : No
Forced : No
Menu
00:00:00.000 : en:Chapter 1
00:04:54.043 : en:Chapter 2
00:10:21.662 : en:Chapter 3
00:14:51.765 : en:Chapter 4
00:19:51.815 : en:Chapter 5
00:26:19.869 : en:Chapter 6
00:32:57.809 : en:Chapter 7
00:40:35.474 : en:Chapter 8
00:47:40.482 : en:Chapter 9
00:52:33.275 : en:Chapter 10
00:58:56.074 : en:Chapter 11
01:05:07.695 : en:Chapter 12
01:09:23.075 : en:Chapter 13
01:18:13.021 : en:Chapter 14
01:27:54.185 : en:Chapter 15
01:33:53.002 : en:Chapter 16

x264 log

VIDEO ENCODING
x264 [info]: frame I:1361 Avg QP:15.66 size: 80041 PSNR Mean Y:47.28 U:50.46 V:50.41 Avg:48.09 Global:47.50
x264 [info]: frame P:37349 Avg QP:17.58 size: 27917 PSNR Mean Y:45.60 U:49.16 V:49.01 Avg:46.45 Global:45.60
x264 [info]: frame B:113520 Avg QP:20.29 size: 9301 PSNR Mean Y:44.99 U:48.93 V:48.75 Avg:45.90 Global:44.96
x264 [info]: consecutive B-frames: 3.1% 4.2% 7.7% 41.4% 13.4% 19.6% 3.7% 5.0% 0.7% 0.3% 0.4% 0.3% 0.1% 0.1% 0.0% 0.0% 0.0%
x264 [total]: encoded 152230 frames, 7.15 fps, 2781.36 kb/s, duration 5:54:56.16

Скриншот c названием фильма

Скриншоты

Убедительная просьба пожалуйста кто скачал не бросайте раздачу!!!
 GOLD TORRENT! DOWNLOAD TRAFFIC DOES NOT CONSIDER! 
Torrent: Registered [ 2017-10-08 05:34 ]   · 2C56989D21946D19715E5571FC79846012BBB36E

Download .torrent

Download

14 KB

Status: checked
Completed: 0 times
Size: 2.72 GB
Поделиться:
terms.php
[Profile] [PM]
Display posts:    
Reply to topic

Current time is: 01-Dec 18:21

All times are UTC + 3



You cannot post new topics in this forum
You cannot reply to topics in this forum
You cannot edit your posts in this forum
You cannot delete your posts in this forum
You cannot vote in polls in this forum
You cannot attach files in this forum
You can download files in this forum