Седьмой сын / Seventh Son (Сергей Бодров / Sergei Bodrov) [2014, США, Великобритания, Канада, Фэнтези, приключения, BDRip-AVC] Dub + AVO (А.Дольский) + Sub Rus, Eng + Original Eng

Reply to topic
DL-List and Torrent activity
Size:  3.49 GB   |    Registered:  2 years 11 months   |    Completed:  0 times

Seeder not seen: Never

 
   
 
 
Author Message

admin ®

Gender: Male

Longevity: 3 years

Posts: 10018

Post 08-Oct-2017 05:30

[Quote]

Седьмой сынSeventh Son«When darkness falls, the son will rise»

Страна: США, Великобритания, Канада
Жанр: Фэнтези, приключения
Год выпуска: 2014
Продолжительность: 01:41:59
Перевод: Профессиональный (дублированный) BD
Перевод 2: Авторский (одноголосый закадровый) А.Дольский
Субтитры: русские,английские
Оригинальная аудиодорожка: английский
Режиссер: Сергей Бодров / Sergei Bodrov
В ролях: Бен Барнс, Джефф Бриджес, Джулианна Мур, Алисия Викандер, Антье Трауэ, Оливия Уильямс, Джон ДеСантис, Кит Харингтон, Джимон Хонсу, Джерард Планкет
Описание: Рассказ в фильме пойдет про парня, который, так уж вышло, стал седьмым сыном седьмого сына. А только такой человек может стать ведьмаком. Но этого недостаточно, чтобы именовать себя так – необходимо пройти массу тренировок, а также усердно учиться. Ведь главное оружие ведьмака – это его ум. Хоть в народе их не любят, но кто-то же обязан убивать нечисть, хранить землю от сил зла и делать всю грязную работу? Юный Том Уорд попробует стать тем самым учеником ведьмака.
Доп. информация:
Релиз группы:
Сохранены оригинальные главы как на Bluray
Качество видео: BDRip-AVC |Седьмой сын / Seventh Son (2014) 1080p BD-Remux| HD club
Формат видео: MKV
Видео: 1152x480 (2:40:1), 23,976 fps, 3470 Кbps, 0.262 bit/pixe
Аудио: 48 kHz, AC3 Dolby Digital, 3/2 (L,C,R,l,r) + LFE ch, ~448.00 kbps avg | DUB
Аудио 2: 48 kHz, AC3 Dolby Digital, 3/2 (L,C,R,l,r) + LFE ch, ~448.00 kbps avg | AVO отдельно
Аудио 3: 48 kHz, AC3 Dolby Digital, 3/2 (L,C,R,l,r) + LFE ch, ~448.00 kbps avg | ENG
Формат субтитров: softsub (SRT)
Доп. информация о субтитрах: отключаемые

Знаете ли Вы что

• Претендентками на роль Элис были Дженнифер Лоуренс, Диана Агрон, Имоджен Путс и Фелисити Джонс.
• На роль Тома Уорда рассматривались Алекс Петтифер, Шайло Фернандез, Сэм Клафлин, Калеб Лэндри Джонс и Джеймс Фрешвилл.
• Съёмки начались 19 марта 2012 года в Ванкувере.
• «Седьмой сын» снят по детскому роману Джозефа Дилейни «Ученик ведьмака».
• Первоначальная дата релиза фильма была назначена на 22 февраля 2013 года. С тех пор премьера фильма неоднократно переносилась, по причинам затянувшегося пост-продакшна и разрыва отношений между студиями Legendary Pictures и Warner Bros. В результате, новый прокатчик картины - Universal Studios, перенес премьеру фильма на 2015 год.
• На 24 минуте фильма Малкин говорит о растущей Луне, но сразу после этого идет кадр с убывающей.

MediaInfo

General
Unique ID : 220124236574849257340881127943381710366 (0xA59A62C8688763218EE9C69F235FF61E)
Complete name : D:\Мои рипы\Седьмой сын\Seventh Son by_IVAN@190282.mkv
Format : Matroska
Format version : Version 4 / Version 2
File size : 3.17 GiB
Duration : 1h 41mn
Overall bit rate : 4 455 Kbps
Encoded date : UTC 2016-03-01 00:00:19
Writing application : mkvmerge v8.8.0 ('Wind at my back') 64bit
Writing library : libebml v1.3.3 + libmatroska v1.4.4
Attachements : cover.jpg
DURATION : 01:32:25.540000000
NUMBER_OF_FRAMES : 1129
NUMBER_OF_BYTES : 25022
_STATISTICS_WRITING_APP : mkvmerge v8.8.0 ('Wind at my back') 64bit
_STATISTICS_WRITING_DATE_UT : 2016-03-01 00:00:19
_STATISTICS_TAGS : BPS DURATION NUMBER_OF_FRAMES NUMBER_OF_BYTES
Video
ID : 1
Format : AVC
Format/Info : Advanced Video Codec
Format profile : High@L4.1
Format settings, CABAC : Yes
Format settings, ReFrames : 12 frames
Codec ID : V_MPEG4/ISO/AVC
Duration : 1h 41mn
Bit rate : 3 470 Kbps
Width : 1 152 pixels
Height : 480 pixels
Display aspect ratio : 2.40:1
Frame rate mode : Constant
Frame rate : 23.976 fps
Color space : YUV
Chroma subsampling : 4:2:0
Bit depth : 8 bits
Scan type : Progressive
Bits/(Pixel*Frame) : 0.262
Stream size : 2.47 GiB (78%)
Title : Seventh Son by_IVAN@190282
Writing library : x264 core 148 r2638kMod 7599210
Encoding settings : cabac=1 / ref=12 / deblock=1:-3:-3 / analyse=0x3:0x133 / me=umh / subme=11 / psy=1 / fade_compensate=0.00 / psy_rd=1.00:0.05 / mixed_ref=1 / me_range=48 / chroma_me=1 / trellis=2 / 8x8dct=1 / cqm=0 / deadzone=21,11 / fast_pskip=0 / chroma_qp_offset=-3 / threads=6 / lookahead_threads=6 / sliced_threads=0 / nr=0 / decimate=1 / interlaced=0 / bluray_compat=0 / constrained_intra=0 / fgo=0 / bframes=16 / b_pyramid=2 / b_adapt=2 / b_bias=0 / direct=3 / weightb=1 / open_gop=0 / weightp=2 / keyint=240 / keyint_min=23 / scenecut=40 / intra_refresh=0 / rc_lookahead=60 / rc=crf / mbtree=0 / crf=16.8000 / qcomp=0.60 / qpmin=0 / qpmax=69 / qpstep=4 / vbv_maxrate=50000 / vbv_bufsize=62500 / crf_max=0.0 / nal_hrd=none / filler=0 / ip_ratio=1.40 / pb_ratio=1.30 / aq=2:1.10
Language : English
Default : Yes
Forced : No
Color range : Limited
Color primaries : BT.709
Transfer characteristics : BT.709
Matrix coefficients : BT.709
DURATION : 01:41:59.697000000
NUMBER_OF_FRAMES : 146726
NUMBER_OF_BYTES : 2720337164
_STATISTICS_WRITING_APP : mkvmerge v8.8.0 ('Wind at my back') 64bit
_STATISTICS_WRITING_DATE_UT : 2016-03-01 00:00:19
_STATISTICS_TAGS : BPS DURATION NUMBER_OF_FRAMES NUMBER_OF_BYTES
Audio #1
ID : 2
Format : AC-3
Format/Info : Audio Coding 3
Mode extension : CM (complete main)
Format settings, Endianness : Big
Codec ID : A_AC3
Duration : 1h 41mn
Bit rate mode : Constant
Bit rate : 448 Kbps
Channel(s) : 6 channels
Channel positions : Front: L C R, Side: L R, LFE
Sampling rate : 48.0 KHz
Compression mode : Lossy
Stream size : 327 MiB (10%)
Title : Dub
Default : Yes
Forced : No
Audio #2
ID : 3
Format : AC-3
Format/Info : Audio Coding 3
Mode extension : CM (complete main)
Format settings, Endianness : Big
Codec ID : A_AC3
Duration : 1h 41mn
Bit rate mode : Constant
Bit rate : 448 Kbps
Channel(s) : 6 channels
Channel positions : Front: L C R, Side: L R, LFE
Sampling rate : 48.0 KHz
Compression mode : Lossy
Stream size : 327 MiB (10%)
Title : Eng
Language : English
Default : No
Forced : No
Text #1
ID : 4
Format : UTF-8
Codec ID : S_TEXT/UTF8
Codec ID/Info : UTF-8 Plain Text
Title : Rus
Default : No
Forced : No
Text #2
ID : 5
Format : UTF-8
Codec ID : S_TEXT/UTF8
Codec ID/Info : UTF-8 Plain Text
Title : Eng
Language : English
Default : No
Forced : No
Menu
00:00:00.000 : en:00:00:00.000
00:04:50.415 : en:00:04:50.415
00:10:28.545 : en:00:10:28.545
00:16:40.583 : en:00:16:40.583
00:22:40.359 : en:00:22:40.359
00:27:40.450 : en:00:27:40.450
00:30:17.691 : en:00:30:17.691
00:36:45.203 : en:00:36:45.203
00:42:37.388 : en:00:42:37.388
00:49:54.742 : en:00:49:54.742
00:54:45.073 : en:00:54:45.073
00:57:48.548 : en:00:57:48.548
01:02:53.144 : en:01:02:53.144
01:06:53.968 : en:01:06:53.968
01:11:29.285 : en:01:11:29.285
01:18:36.921 : en:01:18:36.921
01:22:10.300 : en:01:22:10.300
01:25:32.669 : en:01:25:32.669
01:30:15.035 : en:01:30:15.035
01:33:21.095 : en:01:33:21.095

x264 log

VIDEO ENCODING
x264 [info]: frame I:1049 Avg QP:14.63 size: 98784 PSNR Mean Y:48.07 U:51.13 V:50.50 Avg:48.77 Global:48.30
x264 [info]: frame P:37624 Avg QP:16.23 size: 34529 PSNR Mean Y:46.42 U:50.17 V:49.31 Avg:47.22 Global:46.60
x264 [info]: frame B:108053 Avg QP:18.98 size: 12194 PSNR Mean Y:45.53 U:49.46 V:48.41 Avg:46.33 Global:45.76
x264 [info]: consecutive B-frames: 3.7% 8.9% 10.4% 18.6% 17.9% 33.7% 4.2% 0.8% 0.6% 0.3% 0.2% 0.2% 0.1% 0.1% 0.0% 0.0% 0.1%
x264 [total]: encoded 146726 frames, 5.33 fps, 3556.17 kb/s, duration 7:38:54.97

Скриншот c названием фильма

Скриншоты

Убедительная просьба пожалуйста кто скачал не бросайте раздачу!!!
 GOLD TORRENT! DOWNLOAD TRAFFIC DOES NOT CONSIDER! 
Torrent: Registered [ 2017-10-08 05:30 ]   · C4F6EA16489C2501CC2B06D01DBFD80AF6D4FE45

Download .torrent

Download

18 KB

Status: checked
Completed: 0 times
Size: 3.49 GB
Поделиться:
terms.php
[Profile] [PM]
Display posts:    
Reply to topic

Current time is: 01-Oct 18:09

All times are UTC + 3



You cannot post new topics in this forum
You cannot reply to topics in this forum
You cannot edit your posts in this forum
You cannot delete your posts in this forum
You cannot vote in polls in this forum
You cannot attach files in this forum
You can download files in this forum