Никогда Не Сдавайся / Never Back Down (Джефф Уадлоу / Jeff Wadlow) [2008, США, Боевик, драма, спорт, BDRip-AVC] Dub + Sub Rus, Eng + Original Eng

Reply to topic
DL-List and Torrent activity
Size:  3.7 GB   |    Registered:  3 years 1 month   |    Completed:  0 times

Seeder not seen: Never

 
   
 
 
Author Message

admin ®

Gender: Male

Longevity: 3 years 2 months

Posts: 10115

Post 07-Oct-2017 08:33

[Quote]

Никогда Не СдавайсяNever Back Down«Win or Lose... Everyone Has Their Fight»

Страна: США
Жанр: Боевик, драма, спорт
Год выпуска: 2008
Продолжительность: 01:53:26
Перевод: Профессиональный (дублированный) Blu-ray
Субтитры: русские , английские
Оригинальная аудиодорожка: английский
Режиссер: Джефф Уадлоу / Jeff Wadlow
В ролях:
Шон Фарис, Эмбер Хёрд, Кэм Жиганде, Ивэн Питерс, Лесли Хоуп, Джимон Хонсу, Виатт Смит, Эффион Крокетт, Нил Браун мл., Лоурен Лич, Тиффани Маршалл, Александрия Иона
Описание: Джейк Тайлер вместе со всей своей семьей переезжает в Орландо, чтобы поддержать стремление младшего брата добиться успехов в профессиональной теннисной карьере. Джейк, который в родном городе был звёздой футбольной команды, на новом месте превращается в изгоя. Пытаясь как-то адаптироваться в новом обществе, Джейк принимает приглашение очаровательной одноклассницы Байи на вечеринку. Там он вопреки своим желаниям ввязывается в драку с местным задирой Райаном, в результате которой оказывается побитым и униженным.
Доп. информация:
Релиз группы:
Сохранены оригинальные главы как на Bluray
Качество видео: BDRip-AVC | Никогда Не Сдавайся / Never Back Down (2008) Blu-ray|HD Club|
Формат видео: MKV
Видео: 1152x480 (2:40:1), 23,976 fps, 3684 Кbps, 0.278 bit/pixe
Аудио: 48 kHz, AC3 Dolby Digital, 3/2 (L,C,R,l,r) + LFE ch, ~448.00 kbps avg | DUB
Аудио 2: 48 kHz, AC3 Dolby Digital, 3/2 (L,C,R,l,r) + LFE ch, ~448.00 kbps avg | ENG
Формат субтитров: softsub (SRT)
Доп. информация о субтитрах: отключаемые

Знаете ли Вы что

* Чтобы обрести облик настоящего бойца, Фэрису пришлось нарастить 15 фунтов мышечной массы.
* Съёмки проходили с 16 июля 2007 года в Лос-Анджелесе и Флориде.
* Рабочее название картины вплоть до декабря 2007 года - «Get Some».
* Спортсменов для фильма нашли в различных школах и спортазалах штата Флорида: Pure Pain Thai Kickboxing (город Winter Springs), в Gracie Bara и Shogun Fight School (город Orlando), а также в Kokopelli's Gym (город Longwood).
* Песня группы Papa Roach «To be loved» звучала в трейлере к фильму, но не была включена в фильм.

MediaInfo

General
Unique ID : 219587505911402085662001269861356554698 (0xA53303EB041129AEA27FF5CF14CA49CA)
Complete name : E:\Мои рипы\Никогда не сдавайся\Никогда не сдавайся by_IVAN@.190282.mkv
Format : Matroska
Format version : Version 4 / Version 2
File size : 3.70 GiB
Duration : 1h 53mn
Overall bit rate : 4 673 Kbps
Movie name : Никогда не сдавайся by_IVAN@190282
Encoded date : UTC 2016-02-23 18:31:26
Writing application : mkvmerge v8.8.0 ('Wind at my back') 64bit
Writing library : libebml v1.3.3 + libmatroska v1.4.4
Attachements : cover.jpg
DURATION : 01:44:43.568000000
NUMBER_OF_FRAMES : 1221
NUMBER_OF_BYTES : 38240
_STATISTICS_WRITING_APP : mkvmerge v8.8.0 ('Wind at my back') 64bit
_STATISTICS_WRITING_DATE_UT : 2016-02-23 18:31:26
_STATISTICS_TAGS : BPS DURATION NUMBER_OF_FRAMES NUMBER_OF_BYTES
Video
ID : 1
Format : AVC
Format/Info : Advanced Video Codec
Format profile : High@L4.1
Format settings, CABAC : Yes
Format settings, ReFrames : 13 frames
Codec ID : V_MPEG4/ISO/AVC
Duration : 1h 53mn
Bit rate : 3 684 Kbps
Width : 1 152 pixels
Height : 480 pixels
Display aspect ratio : 2.40:1
Frame rate mode : Constant
Frame rate : 23.976 fps
Color space : YUV
Chroma subsampling : 4:2:0
Bit depth : 8 bits
Scan type : Progressive
Bits/(Pixel*Frame) : 0.278
Stream size : 2.92 GiB (79%)
Title : Никогда не сдавайся by_IVAN@190282
Writing library : x264 core 144 r2525kMod 40bb568
Encoding settings : cabac=1 / ref=13 / deblock=1:-3:-3 / analyse=0x3:0x113 / me=umh / subme=11 / psy=1 / fade_compensate=0.00 / psy_rd=1.00:0.15 / mixed_ref=1 / me_range=48 / chroma_me=1 / trellis=2 / 8x8dct=1 / cqm=0 / deadzone=21,11 / fast_pskip=0 / chroma_qp_offset=0 / threads=6 / lookahead_threads=6 / sliced_threads=0 / slices=10 / nr=0 / decimate=1 / interlaced=0 / bluray_compat=0 / constrained_intra=0 / fgo=0 / bframes=16 / b_pyramid=2 / b_adapt=2 / b_bias=0 / direct=1 / weightb=1 / open_gop=1 / weightp=2 / keyint=240 / keyint_min=23 / scenecut=40 / intra_refresh=0 / rc_lookahead=40 / rc=crf / mbtree=0 / crf=19.2000 / qcomp=0.60 / qpmin=0 / qpmax=69 / qpstep=4 / vbv_maxrate=50000 / vbv_bufsize=62500 / crf_max=0.0 / nal_hrd=none / filler=0 / ip_ratio=1.40 / pb_ratio=1.30 / aq=1:1.00
Default : Yes
Forced : No
Color range : Limited
Color primaries : BT.709
Transfer characteristics : BT.709
Matrix coefficients : BT.709
Audio #1
ID : 2
Format : AC-3
Format/Info : Audio Coding 3
Mode extension : CM (complete main)
Format settings, Endianness : Big
Codec ID : A_AC3
Duration : 1h 53mn
Bit rate mode : Constant
Bit rate : 448 Kbps
Channel(s) : 6 channels
Channel positions : Front: L C R, Side: L R, LFE
Sampling rate : 48.0 KHz
Compression mode : Lossy
Stream size : 363 MiB (10%)
Title : Dub
Default : Yes
Forced : No
Audio #2
ID : 3
Format : AC-3
Format/Info : Audio Coding 3
Mode extension : CM (complete main)
Format settings, Endianness : Big
Codec ID : A_AC3
Duration : 1h 53mn
Bit rate mode : Constant
Bit rate : 448 Kbps
Channel(s) : 6 channels
Channel positions : Front: L C R, Side: L R, LFE
Sampling rate : 48.0 KHz
Compression mode : Lossy
Stream size : 363 MiB (10%)
Title : Eng
Language : English
Default : No
Forced : No
Text #1
ID : 4
Format : UTF-8
Codec ID : S_TEXT/UTF8
Codec ID/Info : UTF-8 Plain Text
Title : Rus
Default : No
Forced : No
Text #2
ID : 5
Format : UTF-8
Codec ID : S_TEXT/UTF8
Codec ID/Info : UTF-8 Plain Text
Title : Eng
Language : English
Default : No
Forced : No
Menu
00:00:00.000 : en:Gridiron Tyler
00:03:50.021 : en:From Here to Orlando
00:07:46.299 : en:I Got This
00:11:33.484 : en:People Are Talking
00:16:42.334 : en:Fight Night
00:20:19.635 : en:The Main Event
00:26:26.835 : en:What About the Other Guy?
00:29:28.850 : en:365 Combat Club
00:32:39.707 : en:Not for Beginners
00:37:04.013 : en:You Set Me Up
00:39:10.723 : en:Never Been More Sure
00:42:05.814 : en:Everyone Has Their Fight
00:43:50.002 : en:What's In the Bag?
00:46:57.105 : en:Half-Speed
00:50:23.186 : en:Road Rage
00:53:43.929 : en:Spectator Sport
00:56:17.290 : en:Take Off Your Gloves
00:59:25.603 : en:Angry All the Time
01:04:58.936 : en:Favorite Son
01:09:00.386 : en:Apologies Are Good
01:12:22.129 : en:Nice Contact
01:17:15.088 : en:He's Baiting You
01:22:17.015 : en:This Is My Fight
01:27:38.795 : en:The Beat Down
01:32:51.607 : en:A Kick to the Ribs
01:38:53.761 : en:Battle on the Blacktop
01:44:52.452 : en:Improving Significantly
01:46:32.928 : en:Credits

x264 log

VIDEO ENCODING
x264 [info]: frame I:1035 Avg QP:18.02 size: 66018
x264 [info]: frame P:45267 Avg QP:19.77 size: 31894
x264 [info]: frame B:116878 Avg QP:20.05 size: 14524
x264 [info]: consecutive B-frames: 5.8% 7.2% 12.0% 30.0% 14.8% 20.0% 3.7% 2.5% 1.3% 0.7% 0.6% 0.6% 0.4% 0.2% 0.1% 0.1% 0.1%
x264 [info]: kb/s:3772.69
x264 [total]: encoded 163180 frames, 3.61 fps, 3772.69 kb/s, duration 12:33:51.24

Скриншот c названием фильма

Скриншоты

Убедительная просьба пожалуйста кто скачал не бросайте раздачу!!!
 GOLD TORRENT! DOWNLOAD TRAFFIC DOES NOT CONSIDER! 
Torrent: Registered [ 2017-10-07 08:33 ]   · F50C6B92F003747FFB0DB5B48CC548EF616D8DBD

Download .torrent

Download

19 KB

Status: checked
Completed: 0 times
Size: 3.7 GB
Поделиться:
terms.php
[Profile] [PM]
Display posts:    
Reply to topic

Current time is: 01-Dec 03:03

All times are UTC + 3



You cannot post new topics in this forum
You cannot reply to topics in this forum
You cannot edit your posts in this forum
You cannot delete your posts in this forum
You cannot vote in polls in this forum
You cannot attach files in this forum
You can download files in this forum