2012 / 2012 (Роланд Эммерих / Roland Emmerich) [2009, США, Канада, Боевик, приключения, драма, фантастика, BDRip-AVC] Dub + Sub Rus, Eng + Original Eng

Reply to topic
DL-List and Torrent activity
Size:  4.94 GB   |    Registered:  2 years 11 months   |    Completed:  0 times

Seeder not seen: Never

 
   
 
 
Author Message

admin ®

Gender: Male

Longevity: 3 years

Posts: 10017

Post 07-Oct-2017 08:11

[Quote]

20122012«Узнай правду... если сможешь!»

Страна: США, Канада
Жанр: Боевик, приключения, драма, фантастика
Год выпуска: 2009
Продолжительность: 2:37:49
Перевод: Профессиональный (дублированный) Blu-ray
Субтитры: русские,английские
Оригинальная аудиодорожка: английский
Режиссер: Роланд Эммерих / Roland Emmerich
В ролях: Джон Кьюсак, Вуди Харрельсон, Тэнди Ньютон, Чиветел Иджиофор, Златко Бурич, Дэнни Гловер, Аманда Пит, Оливер Платт, Томас МакКарти, Хенри О, Рон Селмур, Райан МакДоналд, Патрик Бошо, Лайэм Джеймс, Блу Манкума, Джими Мистри, Йоханн Урб
Описание: Согласно календарю индейцев Майя, в 2012 году планеты солнечной системы окажутся на одной линии друг с другом, что приведет к глобальным природным катаклизмам: сильнейшие землетрясения, цунами и извержения вулканов превратят страны и целые континенты в руины. Недавно ученые подтвердили, что этот миф может стать реальностью.
Доп. информация:
Релиз группы:
Сохранены оригинальные главы как на Bluray
Качество видео: BDRip-AVC |2012 / 2012(209) 1080p BD-Remux| HD Club |
Формат видео: MKV
Видео: 1152x480 (2:40:1), 23,976 fps, 3492 Кbps, 0.263 bit/pixe
Аудио: 48 kHz, AC3 Dolby Digital, 3/2 (L,C,R,l,r) + LFE ch, ~448.00 kbps avg | DUB
Аудио 2: 48 kHz, AC3 Dolby Digital, 3/2 (L,C,R,l,r) + LFE ch, ~448.00 kbps avg | ENG

Знаете ли Вы что

• Название фильма отсылает к конечной дате календаря Майя. Хотя в самом календаре нет точных указаний на дату конца света, многие религиозные и культурные течения сходились на 2012 году.
• Самолёт русского олигарха «Антонов-500» - создан по мотивам Ан-225 (Мрия). Похож внешне и габаритами. Основное отличие - у Ан-225 нет заднего люка, который есть у самолёта в фильме.
• Как заявил Эммерих, среди нескольких известных и исторических сооружений мира, выбранных для того, чтобы быть уничтоженными в фильме, была и Кааба в Мекке — место, к которому обращают свое лицо мусульмане всего мира во время молитвы, и где во время хаджа совершается обряд таваф. Однако в связи с предложением Клозера, сказавшего, что он не хотел бы, чтобы против него выносилась фетва из-за фильма, Кааба была убрана из списка.
• Сын Джексона Кёртиса носит имя Ноа (Ной [библ.]), что в свою очередь является аллегорией на Ветхозаветное сказание о Потопе.

MediaInfo

General
Unique ID : 218643629409597457887511630201880369703 (0xA47D3B36AB78007BA874616CFB8CDA27)
Complete name : E:\Мои рипы\2012\2012 by_IVAN@190282.mkv
Format : Matroska
Format version : Version 4 / Version 2
File size : 4.94 GiB
Duration : 2h 37mn
Overall bit rate : 4 477 Kbps
Encoded date : UTC 2016-03-02 01:40:06
Writing application : mkvmerge v8.8.0 ('Wind at my back') 64bit
Writing library : libebml v1.3.3 + libmatroska v1.4.4
Attachements : cover.jpg
DURATION : 02:26:08.719000000
NUMBER_OF_FRAMES : 1898
NUMBER_OF_BYTES : 67433
_STATISTICS_WRITING_APP : mkvmerge v8.8.0 ('Wind at my back') 64bit
_STATISTICS_WRITING_DATE_UT : 2016-03-02 01:40:06
_STATISTICS_TAGS : BPS DURATION NUMBER_OF_FRAMES NUMBER_OF_BYTES
Video
ID : 1
Format : AVC
Format/Info : Advanced Video Codec
Format profile : High@L4.1
Format settings, CABAC : Yes
Format settings, ReFrames : 13 frames
Codec ID : V_MPEG4/ISO/AVC
Duration : 2h 37mn
Bit rate : 3 492 Kbps
Width : 1 152 pixels
Height : 480 pixels
Display aspect ratio : 2.40:1
Frame rate mode : Constant
Frame rate : 23.976 fps
Color space : YUV
Chroma subsampling : 4:2:0
Bit depth : 8 bits
Scan type : Progressive
Bits/(Pixel*Frame) : 0.263
Stream size : 3.85 GiB (78%)
Writing library : x264 core 144 r2525kMod 40bb568
Encoding settings : cabac=1 / ref=13 / deblock=1:-3:-3 / analyse=0x3:0x113 / me=umh / subme=11 / psy=1 / fade_compensate=0.00 / psy_rd=1.00:0.15 / mixed_ref=1 / me_range=48 / chroma_me=1 / trellis=2 / 8x8dct=1 / cqm=0 / deadzone=21,11 / fast_pskip=0 / chroma_qp_offset=0 / threads=6 / lookahead_threads=6 / sliced_threads=0 / slices=10 / nr=0 / decimate=1 / interlaced=0 / bluray_compat=0 / constrained_intra=0 / fgo=0 / bframes=16 / b_pyramid=2 / b_adapt=2 / b_bias=0 / direct=1 / weightb=1 / open_gop=1 / weightp=2 / keyint=240 / keyint_min=23 / scenecut=40 / intra_refresh=0 / rc_lookahead=40 / rc=crf / mbtree=0 / crf=17.0000 / qcomp=0.60 / qpmin=0 / qpmax=69 / qpstep=4 / vbv_maxrate=50000 / vbv_bufsize=62500 / crf_max=0.0 / nal_hrd=none / filler=0 / ip_ratio=1.40 / pb_ratio=1.30 / aq=1:1.00
Default : Yes
Forced : No
Color range : Limited
Color primaries : BT.709
Transfer characteristics : BT.709
Matrix coefficients : BT.709
Audio #1
ID : 2
Format : AC-3
Format/Info : Audio Coding 3
Mode extension : CM (complete main)
Format settings, Endianness : Big
Codec ID : A_AC3
Duration : 2h 37mn
Bit rate mode : Constant
Bit rate : 448 Kbps
Channel(s) : 6 channels
Channel positions : Front: L C R, Side: L R, LFE
Sampling rate : 48.0 KHz
Compression mode : Lossy
Stream size : 506 MiB (10%)
Title : Dub
Default : Yes
Forced : No
Audio #2
ID : 3
Format : AC-3
Format/Info : Audio Coding 3
Mode extension : CM (complete main)
Format settings, Endianness : Big
Codec ID : A_AC3
Duration : 2h 37mn
Bit rate mode : Constant
Bit rate : 448 Kbps
Channel(s) : 6 channels
Channel positions : Front: L C R, Side: L R, LFE
Sampling rate : 48.0 KHz
Compression mode : Lossy
Stream size : 506 MiB (10%)
Title : Eng
Default : No
Forced : No
Text #1
ID : 4
Format : UTF-8
Codec ID : S_TEXT/UTF8
Codec ID/Info : UTF-8 Plain Text
Title : Rus
Default : No
Forced : No
Text #2
ID : 5
Format : UTF-8
Codec ID : S_TEXT/UTF8
Codec ID/Info : UTF-8 Plain Text
Title : Eng
Default : No
Forced : No
Menu
00:00:00.000 : en:Chapter 1
00:11:54.672 : en:Chapter 2
00:21:58.233 : en:Chapter 3
00:28:47.600 : en:Chapter 4
00:34:38.076 : en:Chapter 5
00:44:48.143 : en:Chapter 6
00:55:26.656 : en:Chapter 7
01:05:09.405 : en:Chapter 8
01:16:25.289 : en:Chapter 9
01:25:02.514 : en:Chapter 10
01:36:35.331 : en:Chapter 11
01:46:47.234 : en:Chapter 12
01:56:49.794 : en:Chapter 13
02:04:53.152 : en:Chapter 14
02:16:39.983 : en:Chapter 15
02:23:21.593 : en:Chapter 16

x264 log

VIDEO ENCODING
x264 [info]: frame I:1665 Avg QP:15.34 size: 74775
x264 [info]: frame P:54046 Avg QP:17.68 size: 34146
x264 [info]: frame B:171328 Avg QP:18.71 size: 13217
x264 [info]: consecutive B-frames: 3.4% 4.1% 10.6% 19.8% 18.6% 35.0% 4.7% 1.2% 1.1% 0.6% 0.4% 0.2% 0.2% 0.2% 0.0% 0.0% 0.0%
x264 [info]: kb/s:3577.37
x264 [total]: encoded 227039 frames, 6.82 fps, 3577.37 kb/s, duration 9:15:06.71

Скриншот c названием фильма

Скриншоты

Сравнения

Sours by_IVAN@190282
Убедительная просьба пожалуйста кто скачал не бросайте раздачу!!!
 GOLD TORRENT! DOWNLOAD TRAFFIC DOES NOT CONSIDER! 
Torrent: Registered [ 2017-10-07 08:11 ]   · 6810DDB7D2EA9A34EB7EDFDE5210730B6FDE8A36

Download .torrent

Download

13 KB

Status: checked
Completed: 0 times
Size: 4.94 GB
Поделиться:
terms.php
[Profile] [PM]
Display posts:    
Reply to topic

Current time is: 28-Sep 08:49

All times are UTC + 3



You cannot post new topics in this forum
You cannot reply to topics in this forum
You cannot edit your posts in this forum
You cannot delete your posts in this forum
You cannot vote in polls in this forum
You cannot attach files in this forum
You can download files in this forum