Паркер / Parker (Тейлор Хэкфорд / Taylor Hackford) [2013, США, Боевик, триллер, криминал, BDRip-AVC] Dub + Sub Rus,Eng + Original Eng

Reply to topic
DL-List and Torrent activity
Size:  4.37 GB   |    Registered:  3 months 17 days   |    Completed:  0 times

Seeder not seen: Never

 
   
 
 
Author Message

admin ®

Gender: Male

Longevity: 2 years 11 months

Posts: 10017

Post 07-Oct-2017 08:05

[Quote]

ПаркерParker«To get away clean, you have to play dirty»

Страна: США / Anvil Films, Current Entertainment, Incentive Filmed Entertainment
Жанр: Боевик, триллер, криминал
Год выпуска: 2013
Продолжительность: 01:58:40
Перевод: Профессиональный (дублированный) Blu-ray
Субтитры: русские,английские
Оригинальная аудиодорожка: английский
Режиссер: Тейлор Хэкфорд / Taylor Hackford
В ролях: Джейсон Стэйтем, Дженнифер Лопез, Майкл Чиклис, Ник Нолти, Эмма Бут, Майка А. Хауптмен, Уенделл Пирс, Клифтон Коллинз мл., Дэниэл Бернхард, Бобби Каннавале
Описание: Главный герой — профессиональный вор, руководствующийся собственным моральным кодексом, но способный запросто отправить на тот свет любого, кто перейдёт ему дорогу.
Доп. информация:
Релиз группы:
Качество видео: BDRip-AVC |Паркер / Parker (2013) 1080p BD-Remux| Kinozal |
Формат видео: MKV
Видео: 1144x476 (2:40:1), 23,976 fps, 4272 Кbps, 0.327 bit/pixe
Аудио: 48 kHz, AC3 Dolby Digital, 3/2 (L,C,R,l,r) + LFE ch, ~448.00 kbps avg | DUB
Аудио 2: 48 kHz, AC3 Dolby Digital, 3/2 (L,C,R,l,r) + LFE ch, ~448.00 kbps avg | ENG
Формат субтитров: softsub (SRT)
Доп. информация о субтитрах: отключаемые

Знаете ли вы, что...

• Это первая адаптация романа из цикла «Паркер» Дональда Э. Уэстлейка (псевдоним — Richard Stark) с использованием имени персонажа — Паркера.
В фильме «Расплата» (1999), снятому по роману «Охотник» (The Hunter), использовалось имя Портер. Уэстлейк скончался 31 декабря 2008 года.

MediaInfo

General
Unique ID : 199183099101094797770786799327920240555 (0x95D944FDC92E02C7B21D61AAEB1BB7AB)
Complete name : E:\Мои рипы\Паркер\Parker by_IVAN@190282.mkv
Format : Matroska
Format version : Version 2
File size : 4.37 GiB
Duration : 1h 58mn
Overall bit rate : 5 273 Kbps
Encoded date : UTC 2015-02-10 11:42:13
Writing application : mkvmerge v7.0.0 ('Where We Going') 64bit built on Jun 9 2014 15:16:27
Writing library : libebml v1.3.0 + libmatroska v1.4.1
DURATION : 01:51:56.041000000
NUMBER_OF_FRAMES : 1678
NUMBER_OF_BYTES : 55064
_STATISTICS_WRITING_APP : mkvmerge v7.0.0 ('Where We Going') 64bit built on Jun 9 2014 15:16:27
_STATISTICS_WRITING_DATE_UTC : 2015-02-10 11:42:13
_STATISTICS_TAGS : BPS DURATION NUMBER_OF_FRAMES NUMBER_OF_BYTES
Video
ID : 1
Format : AVC
Format/Info : Advanced Video Codec
Format profile : High@L4.1
Format settings, CABAC : Yes
Format settings, ReFrames : 13 frames
Codec ID : V_MPEG4/ISO/AVC
Duration : 1h 58mn
Bit rate : 4 272 Kbps
Width : 1 144 pixels
Height : 476 pixels
Display aspect ratio : 2.40:1
Frame rate mode : Constant
Frame rate : 23.976 fps
Color space : YUV
Chroma subsampling : 4:2:0
Bit depth : 8 bits
Scan type : Progressive
Bits/(Pixel*Frame) : 0.327
Stream size : 3.54 GiB (81%)
Writing library : x264 core 144 r2525kMod 40bb568
Encoding settings : cabac=1 / ref=13 / deblock=1:-3:-3 / analyse=0x3:0x113 / me=umh / subme=11 / psy=1 / fade_compensate=0.00 / psy_rd=1.00:0.15 / mixed_ref=1 / me_range=48 / chroma_me=1 / trellis=2 / 8x8dct=1 / cqm=0 / deadzone=21,11 / fast_pskip=0 / chroma_qp_offset=0 / threads=6 / lookahead_threads=6 / sliced_threads=0 / slices=10 / nr=0 / decimate=1 / interlaced=0 / bluray_compat=0 / constrained_intra=0 / fgo=0 / bframes=16 / b_pyramid=2 / b_adapt=2 / b_bias=0 / direct=1 / weightb=1 / open_gop=1 / weightp=2 / keyint=240 / keyint_min=23 / scenecut=40 / intra_refresh=0 / rc_lookahead=40 / rc=crf / mbtree=0 / crf=16.5000 / qcomp=0.60 / qpmin=0 / qpmax=69 / qpstep=4 / vbv_maxrate=50000 / vbv_bufsize=62500 / crf_max=0.0 / nal_hrd=none / filler=0 / ip_ratio=1.40 / pb_ratio=1.30 / aq=1:1.00
Default : Yes
Forced : No
Color primaries : BT.709
Transfer characteristics : BT.709
Matrix coefficients : BT.709
Audio #1
ID : 2
Format : AC-3
Format/Info : Audio Coding 3
Mode extension : CM (complete main)
Format settings, Endianness : Big
Codec ID : A_AC3
Duration : 1h 58mn
Bit rate mode : Constant
Bit rate : 448 Kbps
Channel(s) : 6 channels
Channel positions : Front: L C R, Side: L R, LFE
Sampling rate : 48.0 KHz
Bit depth : 16 bits
Compression mode : Lossy
Stream size : 380 MiB (8%)
Title : Dub
Default : Yes
Forced : No
Audio #2
ID : 3
Format : AC-3
Format/Info : Audio Coding 3
Mode extension : CM (complete main)
Format settings, Endianness : Big
Codec ID : A_AC3
Duration : 1h 58mn
Bit rate mode : Constant
Bit rate : 448 Kbps
Channel(s) : 6 channels
Channel positions : Front: L C R, Side: L R, LFE
Sampling rate : 48.0 KHz
Bit depth : 16 bits
Compression mode : Lossy
Stream size : 380 MiB (8%)
Title : Eng
Default : No
Forced : No
Text #1
ID : 4
Format : UTF-8
Codec ID : S_TEXT/UTF8
Codec ID/Info : UTF-8 Plain Text
Title : Rus
Default : Yes
Forced : No
Text #2
ID : 5
Format : UTF-8
Codec ID : S_TEXT/UTF8
Codec ID/Info : UTF-8 Plain Text
Title : Eng
Default : No
Forced : No
Menu
00:00:00.000 : :Chapter 01
00:06:14.707 : :Chapter 02
00:14:00.923 : :Chapter 03
00:19:29.585 : :Chapter 04
00:26:25.000 : :Chapter 05
00:31:46.487 : :Chapter 06
00:38:26.804 : :Chapter 07
00:42:27.920 : :Chapter 08
00:49:46.274 : :Chapter 09
00:55:07.637 : :Chapter 10
01:01:11.376 : :Chapter 11
01:06:21.560 : :Chapter 12
01:11:51.348 : :Chapter 13
01:22:34.532 : :Chapter 14
01:30:46.274 : :Chapter 15
01:38:12.219 : :Chapter 16

x264 log

VIDEO ENCODING
x264 [info]: frame I:1231 Avg QP:16.72 size: 86528
x264 [info]: frame P:45507 Avg QP:17.02 size: 38963
x264 [info]: frame B:123976 Avg QP:18.01 size: 16233
x264 [info]: consecutive B-frames: 4.7% 6.7% 13.7% 24.5% 15.9% 27.7% 3.4% 0.9% 0.7% 0.5% 0.4% 0.2% 0.3% 0.2% 0.1% 0.1% 0.0%
x264 [info]: kb/s:4373.02
x264 [total]: encoded 170714 frames, 3.42 fps, 4373.02 kb/s, duration 13:51:25.89

Скриншот c названием фильма

Скриншоты

Убедительная просьба пожалуйста кто скачал не бросайте раздачу!!!
 GOLD TORRENT! DOWNLOAD TRAFFIC DOES NOT CONSIDER! 
Torrent: Registered [ 2020-06-06 06:54 ]   · CB56D81F09E8B913195E5D896CF36F9065E47DFB

Download .torrent

Download

11 KB

Status: checked
Completed: 0 times
Size: 4.37 GB
Поделиться:
terms.php
[Profile] [PM]
Display posts:    
Reply to topic

Current time is: 24-Sep 00:21

All times are UTC + 3



You cannot post new topics in this forum
You cannot reply to topics in this forum
You cannot edit your posts in this forum
You cannot delete your posts in this forum
You cannot vote in polls in this forum
You cannot attach files in this forum
You can download files in this forum