Ультраамериканцы / American Ultra (Нима Нуризаде / Nima Nourizadeh) [2015, США, Швейцария, Боевик, комедия, BDRip-AVC] Dub + Sub Rus, Eng + Original Eng

Reply to topic
DL-List and Torrent activity
Size:  3.58 GB   |    Registered:  2 years 11 months   |    Completed:  0 times

Seeder not seen: Never

 
   
 
 
Author Message

admin ®

Gender: Male

Longevity: 3 years

Posts: 10017

Post 07-Oct-2017 07:26

[Quote]

УльтраамериканцыAmerican Ultra«Нет ничего опаснее обкуренного киллера с амнезией»

Страна: США, Швейцария
Жанр: Боевик, комедия
Год выпуска: 2015
Продолжительность: 01:35:41
Перевод: Профессиональный (дублированный) BD RUS
Субтитры: русские,английские
Оригинальная аудиодорожка: английский
Режиссер: Нима Нуризаде / Nima Nourizadeh
В ролях: Джесси Айзенберг, Кристен Стюарт, Тофер Грейс, Конни Бриттон, Уолтон Гоггинс, Джон Легуизамо, Билл Пуллман, Тони Хейл, Стюарт Грир, Майкл Пападжон
Описание: А вдруг ты тоже спецагент, обладающий уникальной боевой подготовкой и сверхинтеллектом? Но просто ты забыл об этом… Как Майк Хоуэлл, лоботряс из супермаркета, который безмятежно читает комиксы и курит дурь пока славное прошлое не настигает его. И обдолбанный агент №1 становится мишенью №1.
Доп. информация:
Релиз группы:
Сохранены оригинальные главы как на Bluray
Качество видео: BDRip-AVC | Ультраамериканцы / American Ultra (2015) 1080p BD-Remux| HD club
Формат видео: MKV
Видео: 1132x612 (1:85:1), 23,976 fps, 4348 Кbps, 0.262 bit/pixe
Аудио: 48 kHz, AC3 Dolby Digital, 3/2 (L,C,R,l,r) + LFE ch, ~448.00 kbps avg DUB
Аудио 2: 48 kHz, AC3 Dolby Digital, 3/2 (L,C,R,l,r) + LFE ch, ~448.00 kbps avg ENG
Формат субтитров: softsub (SRT)
Доп. информация о субтитрах: отключаемые

Знаете ли Вы что

• В качестве рекламного трюка студия Lionsgate раздавала марихуану посетителям Comic Con в Сан-Диего, имеющим соответствующее медицинское разрешение.
• Джесси Айзенберг рассказал в интервью, что готовясь к роли укурка, он жил со своим двоюродным братом Эндрю Айзенбергом (Andrew Eisenberg), который научил его манере речи и походке людей, которые часто употребляют марихуану. Джесси Айзенберг также отметил, что без помощи Эндрю он, скорее всего, не справился бы с этой ролью.
• Роль Виктории Лассетер могла достаться Уме Турман, но контракт с ней так и не был подписан. Место Турман должна была занять Шэрон Стоун, однако она покинула проект из-за несогласованности съемочных графиков. В итоге роль досталась Конни Бриттон.
• Для роли в этом фильме Кристен Стюарт покрасила волосы в ярко красный цвет.

MediaInfo

General
Unique ID : 244897575069756505631829340879174292387 (0xB83D8EAC186843FA8F5A41E23200D3A3)
Complete name : D:\Мои рипы\Ультраамериканцы\American Ultra by_IVAN@190282.mkv
Format : Matroska
Format version : Version 4 / Version 2
File size : 3.58 GiB
Duration : 1h 35mn
Overall bit rate : 5 349 Kbps
Encoded date : UTC 2016-02-29 03:11:34
Writing application : mkvmerge v8.8.0 ('Wind at my back') 64bit
Writing library : libebml v1.3.3 + libmatroska v1.4.4
Attachements : cover.png
DURATION : 01:30:43.644000000
NUMBER_OF_FRAMES : 1441
NUMBER_OF_BYTES : 43595
_STATISTICS_WRITING_APP : mkvmerge v8.8.0 ('Wind at my back') 64bit
_STATISTICS_WRITING_DATE_UT : 2016-02-29 03:11:34
_STATISTICS_TAGS : BPS DURATION NUMBER_OF_FRAMES NUMBER_OF_BYTES
Video
ID : 1
Format : AVC
Format/Info : Advanced Video Codec
Format profile : High@L4.1
Format settings, CABAC : Yes
Format settings, ReFrames : 11 frames
Codec ID : V_MPEG4/ISO/AVC
Duration : 1h 35mn
Bit rate : 4 346 Kbps
Width : 1 132 pixels
Height : 612 pixels
Display aspect ratio : 1.85:1
Frame rate mode : Constant
Frame rate : 23.976 fps
Color space : YUV
Chroma subsampling : 4:2:0
Bit depth : 8 bits
Scan type : Progressive
Bits/(Pixel*Frame) : 0.262
Stream size : 2.91 GiB (81%)
Title : American Ultra by_IVAN@190282
Writing library : x264 core 148 r2638kMod 7599210
Encoding settings : cabac=1 / ref=11 / deblock=1:-3:-2 / analyse=0x3:0x133 / me=umh / subme=11 / psy=1 / fade_compensate=0.00 / psy_rd=1.00:0.05 / mixed_ref=1 / me_range=48 / chroma_me=1 / trellis=2 / 8x8dct=1 / cqm=0 / deadzone=21,11 / fast_pskip=0 / chroma_qp_offset=-3 / threads=6 / lookahead_threads=6 / sliced_threads=0 / nr=0 / decimate=1 / interlaced=0 / bluray_compat=0 / constrained_intra=0 / fgo=0 / bframes=16 / b_pyramid=2 / b_adapt=2 / b_bias=0 / direct=3 / weightb=1 / open_gop=0 / weightp=2 / keyint=240 / keyint_min=23 / scenecut=40 / intra_refresh=0 / rc_lookahead=60 / rc=crf / mbtree=0 / crf=17.6000 / qcomp=0.60 / qpmin=0 / qpmax=69 / qpstep=4 / vbv_maxrate=50000 / vbv_bufsize=62500 / crf_max=0.0 / nal_hrd=none / filler=0 / ip_ratio=1.40 / pb_ratio=1.30 / aq=2:1.10
Language : English
Default : Yes
Forced : No
Color range : Limited
Color primaries : BT.709
Transfer characteristics : BT.709
Matrix coefficients : BT.709
DURATION : 01:35:41.861000000
NUMBER_OF_FRAMES : 137667
NUMBER_OF_BYTES : 3193838156
_STATISTICS_WRITING_APP : mkvmerge v8.8.0 ('Wind at my back') 64bit
_STATISTICS_WRITING_DATE_UT : 2016-02-29 03:11:34
_STATISTICS_TAGS : BPS DURATION NUMBER_OF_FRAMES NUMBER_OF_BYTES
Audio #1
ID : 2
Format : AC-3
Format/Info : Audio Coding 3
Mode extension : CM (complete main)
Format settings, Endianness : Big
Codec ID : A_AC3
Duration : 1h 35mn
Bit rate mode : Constant
Bit rate : 448 Kbps
Channel(s) : 6 channels
Channel positions : Front: L C R, Side: L R, LFE
Sampling rate : 48.0 KHz
Compression mode : Lossy
Stream size : 307 MiB (8%)
Title : BD RUS
Default : Yes
Forced : No
Audio #2
ID : 3
Format : AC-3
Format/Info : Audio Coding 3
Mode extension : CM (complete main)
Format settings, Endianness : Big
Codec ID : A_AC3
Duration : 1h 35mn
Bit rate mode : Constant
Bit rate : 448 Kbps
Channel(s) : 6 channels
Channel positions : Front: L C R, Side: L R, LFE
Sampling rate : 48.0 KHz
Compression mode : Lossy
Stream size : 307 MiB (8%)
Title : Eng
Language : English
Default : No
Forced : No
Text #1
ID : 4
Format : UTF-8
Codec ID : S_TEXT/UTF8
Codec ID/Info : UTF-8 Plain Text
Title : Rus
Default : No
Forced : No
Text #2
ID : 5
Format : UTF-8
Codec ID : S_TEXT/UTF8
Codec ID/Info : UTF-8 Plain Text
Title : Eng
Language : English
Default : No
Forced : No
Text #3
ID : 6
Format : UTF-8
Codec ID : S_TEXT/UTF8
Codec ID/Info : UTF-8 Plain Text
Title : Eng SDH
Language : English
Default : No
Forced : No
Menu #1
00:00:00.000 : en:00:00:00.000
00:03:47.727 : en:00:03:47.727
00:09:28.985 : en:00:09:28.985
00:16:40.583 : en:00:16:40.583
00:22:15.918 : en:00:22:15.918
00:26:45.979 : en:00:26:45.979
00:33:28.632 : en:00:33:28.632
00:37:54.230 : en:00:37:54.230
00:42:31.048 : en:00:42:31.048
00:48:55.849 : en:00:48:55.849
00:55:13.393 : en:00:55:13.393
01:00:11.274 : en:01:00:11.274
01:06:12.302 : en:01:06:12.302
01:10:14.669 : en:01:10:14.669
01:18:38.922 : en:01:18:38.922
01:25:14.693 : en:01:25:14.693

x264 log

VIDEO ENCODING
x264 [info]: frame I:1100 Avg QP:14.80 size:114860 PSNR Mean Y:47.97 U:52.02 V:52.61 Avg:48.90 Global:48.25
x264 [info]: frame P:29566 Avg QP:16.17 size: 45181 PSNR Mean Y:47.00 U:51.80 V:53.86 Avg:48.00 Global:47.11
x264 [info]: frame B:107001 Avg QP:18.34 size: 16184 PSNR Mean Y:45.55 U:50.71 V:51.73 Avg:46.62 Global:45.89
x264 [info]: consecutive B-frames: 2.7% 2.7% 10.0% 12.4% 15.5% 39.9% 7.4% 2.3% 1.8% 1.1% 1.2% 0.7% 0.7% 0.8% 0.4% 0.1% 0.2%
x264 [total]: encoded 137667 frames, 2.33 fps, 4449.90 kb/s, duration 16:23:05.53

Скриншот c названием фильма

Скриншоты

Сравнения

Sours by_IVAN@190282 Sours VS by_IVAN@190282 http://screenshotcomparison.com/comparison/150803/picture:0
Убедительная просьба пожалуйста кто скачал не бросайте раздачу!!!
 GOLD TORRENT! DOWNLOAD TRAFFIC DOES NOT CONSIDER! 
Torrent: Registered [ 2017-10-07 07:26 ]   · 6F2F79A849B43E0C3286843EE56F84591D0A8DE8

Download .torrent

Download

18 KB

Status: checked
Completed: 0 times
Size: 3.58 GB
Поделиться:
terms.php
[Profile] [PM]
Display posts:    
Reply to topic

Current time is: 28-Sep 07:25

All times are UTC + 3



You cannot post new topics in this forum
You cannot reply to topics in this forum
You cannot edit your posts in this forum
You cannot delete your posts in this forum
You cannot vote in polls in this forum
You cannot attach files in this forum
You can download files in this forum