Глушь / Backcountry (Адам МакДональд / Adam MacDonald) [2014, Канада, Триллер, драма, ужасы, BDRip-AVC] VO + Sub Rus, Eng + Original Eng

Reply to topic
DL-List and Torrent activity
Size:  3.3 GB   |    Registered:  2 years 11 months   |    Completed:  0 times

Seeder not seen: Never

 
   
 
 
Author Message

admin ®

Gender: Male

Longevity: 3 years

Posts: 10019

Post 07-Oct-2017 06:51

[Quote]

ГлушьBackcountry«Survive»

Страна: Канада
Жанр: Триллер, драма, ужасы
Год выпуска: 2014
Продолжительность: 01:31:32
Перевод: Одноголосый закадровый Д.Есарев
Субтитры: русские,английские
Оригинальная аудиодорожка: английский
Режиссер: Адам МакДональд / Adam MacDonald
В ролях: Мисси Перегрим, Эрик Бальфур, Николас Кэмпбелл, Мелани Маллен, Джефф Руп, Эшли Нэй
Описание: Городская пара оказалась без провианта посреди дикой глуши на территории хищного черного медведя.
Доп. информация:
Релиз группы:
Сохранены оригинальные главы как на BD
Качество видео: BDRip-AVC | Глушь / Backcountry (2014) 1080p BD-Remux|HD Club|
Формат видео: MKV
Видео: 1146x480 (2:40:1), 23,976 fps, 4159 Кbps, 0.315 bit/pixe
Аудио: 48 kHz, AC3 Dolby Digital, 3/2 (L,C,R,l,r) + LFE ch, ~448.00 kbps avg | VO
Аудио 2: 48 kHz, AC3 Dolby Digital, 3/2 (L,C,R,l,r) + LFE ch, ~448.00 kbps avg | ENG
Формат субтитров: softsub (SRT)
Доп. информация о субтитрах: отключаемые

MediaInfo

General
Unique ID : 217706356311948175668311338029370551206 (0xA3C8B8150074FEB19A990930CA03ABA6)
Complete name : D:\Мои рипы\Глушь\Backcountry by_IVAN@.190282.mkv
Format : Matroska
Format version : Version 4 / Version 2
File size : 3.30 GiB
Duration : 1h 31mn
Overall bit rate : 5 158 Kbps
Movie name : Backcountry by_IVAN@190282
Encoded date : UTC 2016-02-28 14:19:23
Writing application : mkvmerge v8.8.0 ('Wind at my back') 64bit
Writing library : libebml v1.3.3 + libmatroska v1.4.4
Attachements : cover.jpg
DURATION : 01:26:23.095000000
NUMBER_OF_FRAMES : 857
NUMBER_OF_BYTES : 21039
_STATISTICS_WRITING_APP : mkvmerge v8.8.0 ('Wind at my back') 64bit
_STATISTICS_WRITING_DATE_UT : 2016-02-28 14:19:23
_STATISTICS_TAGS : BPS DURATION NUMBER_OF_FRAMES NUMBER_OF_BYTES
Video
ID : 1
Format : AVC
Format/Info : Advanced Video Codec
Format profile : High@L4.1
Format settings, CABAC : Yes
Format settings, ReFrames : 11 frames
Codec ID : V_MPEG4/ISO/AVC
Duration : 1h 31mn
Bit rate : 4 159 Kbps
Width : 1 146 pixels
Height : 480 pixels
Display aspect ratio : 2.40:1
Frame rate mode : Constant
Frame rate : 23.976 fps
Color space : YUV
Chroma subsampling : 4:2:0
Bit depth : 8 bits
Scan type : Progressive
Bits/(Pixel*Frame) : 0.315
Stream size : 2.66 GiB (81%)
Title : Backcountry by_IVAN@190282
Writing library : x264 core 148 r2638kMod 7599210
Encoding settings : cabac=1 / ref=11 / deblock=1:-3:-2 / analyse=0x3:0x133 / me=umh / subme=11 / psy=1 / fade_compensate=0.00 / psy_rd=1.00:0.05 / mixed_ref=1 / me_range=48 / chroma_me=1 / trellis=2 / 8x8dct=1 / cqm=0 / deadzone=21,11 / fast_pskip=0 / chroma_qp_offset=-3 / threads=6 / lookahead_threads=6 / sliced_threads=0 / nr=0 / decimate=1 / interlaced=0 / bluray_compat=0 / constrained_intra=0 / fgo=0 / bframes=16 / b_pyramid=2 / b_adapt=2 / b_bias=0 / direct=3 / weightb=1 / open_gop=0 / weightp=2 / keyint=240 / keyint_min=23 / scenecut=40 / intra_refresh=0 / rc_lookahead=60 / rc=crf / mbtree=0 / crf=17.1000 / qcomp=0.60 / qpmin=0 / qpmax=69 / qpstep=4 / vbv_maxrate=50000 / vbv_bufsize=62500 / crf_max=0.0 / nal_hrd=none / filler=0 / ip_ratio=1.40 / pb_ratio=1.30 / aq=2:1.10
Language : English
Default : Yes
Forced : No
Color range : Limited
Color primaries : BT.709
Transfer characteristics : BT.709
Matrix coefficients : BT.709
DURATION : 01:31:32.863000000
NUMBER_OF_FRAMES : 131697
NUMBER_OF_BYTES : 2924608063
_STATISTICS_WRITING_APP : mkvmerge v8.8.0 ('Wind at my back') 64bit
_STATISTICS_WRITING_DATE_UT : 2016-02-28 14:19:23
_STATISTICS_TAGS : BPS DURATION NUMBER_OF_FRAMES NUMBER_OF_BYTES
Audio #1
ID : 2
Format : AC-3
Format/Info : Audio Coding 3
Mode extension : CM (complete main)
Format settings, Endianness : Big
Codec ID : A_AC3
Duration : 1h 31mn
Bit rate mode : Constant
Bit rate : 448 Kbps
Channel(s) : 6 channels
Channel positions : Front: L C R, Side: L R, LFE
Sampling rate : 48.0 KHz
Compression mode : Lossy
Stream size : 293 MiB (9%)
Title : VO Esarev
Default : Yes
Forced : No
Audio #2
ID : 3
Format : AC-3
Format/Info : Audio Coding 3
Mode extension : CM (complete main)
Format settings, Endianness : Big
Codec ID : A_AC3
Duration : 1h 31mn
Bit rate mode : Constant
Bit rate : 448 Kbps
Channel(s) : 6 channels
Channel positions : Front: L C R, Side: L R, LFE
Sampling rate : 48.0 KHz
Compression mode : Lossy
Stream size : 293 MiB (9%)
Title : Eng
Language : English
Default : No
Forced : No
Text #1
ID : 4
Format : UTF-8
Codec ID : S_TEXT/UTF8
Codec ID/Info : UTF-8 Plain Text
Title : Rus
Default : No
Forced : No
Text #2
ID : 5
Format : UTF-8
Codec ID : S_TEXT/UTF8
Codec ID/Info : UTF-8 Plain Text
Title : Eng
Language : English
Default : No
Forced : No
Menu
00:00:00.000 : en:(01)00:00:00:000
00:05:53.353 : en:(02)00:05:53:353
00:11:11.294 : en:(03)00:11:11:294
00:18:07.086 : en:(04)00:18:07:086
00:26:55.614 : en:(05)00:26:55:614
00:35:10.733 : en:(06)00:35:10:733
00:45:53.751 : en:(07)00:45:53:751
00:51:28.085 : en:(08)00:51:28:085
00:56:42.398 : en:(09)00:56:42:398
01:04:26.487 : en:(10)01:04:26:487
01:09:58.819 : en:(11)01:09:58:819
01:20:16.435 : en:(12)01:20:16:435

x264 log

VIDEO ENCODING
x264 [info]: frame I:696 Avg QP:14.74 size: 81361 PSNR Mean Y:50.09 U:55.42 V:55.70 Avg:51.02 Global:48.98
x264 [info]: frame P:32736 Avg QP:15.83 size: 37693 PSNR Mean Y:47.87 U:52.91 V:53.26 Avg:48.82 Global:47.26
x264 [info]: frame B:98265 Avg QP:17.52 size: 16629 PSNR Mean Y:48.04 U:54.23 V:54.62 Avg:49.07 Global:46.39
x264 [info]: consecutive B-frames: 4.7% 5.1% 13.7% 15.0% 15.4% 31.0% 4.3% 2.0% 1.3% 1.1% 1.1% 1.4% 0.7% 0.5% 0.4% 0.5% 1.9%
x264 [total]: encoded 131697 frames, 6.63 fps, 4259.50 kb/s, duration 5:30:57.75

Скриншот c названием фильма

Скриншоты

Внимание:в переводе Д.Есарева присутствует нецензурная лексика! Убедительная просьба пожалуйста кто скачал не бросайте раздачу!!!
 GOLD TORRENT! DOWNLOAD TRAFFIC DOES NOT CONSIDER! 
Torrent: Registered [ 2017-10-07 06:51 ]   · 9784890E38C6FC5F003C96FF476E6D96D21E204D

Download .torrent

Download

17 KB

Status: checked
Completed: 0 times
Size: 3.3 GB
Поделиться:
terms.php
[Profile] [PM]
Display posts:    
Reply to topic

Current time is: 27-Sep 16:05

All times are UTC + 3



You cannot post new topics in this forum
You cannot reply to topics in this forum
You cannot edit your posts in this forum
You cannot delete your posts in this forum
You cannot vote in polls in this forum
You cannot attach files in this forum
You can download files in this forum