Агенты А.Н.К.Л. / The Man from U.N.C.L.E. (Гай Ричи / Guy Ritchie) [2015, США, Великобритания, Боевик, комедия, приключения, BDRip-AVC] Dub + Sub Rus, Eng + Original Eng

Reply to topic
DL-List and Torrent activity
Size:  3.29 GB   |    Registered:  4 months 21 day   |    Completed:  0 times

Seeder not seen: Never

 
   
 
 
Author Message

admin ®

Gender: Male

Longevity: 3 years 1 month

Posts: 10044

Post 07-Oct-2017 05:56

[Quote]

Агенты А.Н.К.Л.The Man from U.N.C.L.E.«Герои высшего класса»

Страна: США, Великобритания
Жанр: Боевик, комедия, приключения
Год выпуска: 2015
Продолжительность: 01:56:29
Перевод: Профессиональный (дублированный) BD CEE
Субтитры: русские,английские
Оригинальная аудиодорожка: английский
Режиссер: Гай Ричи / Guy Ritchie
В ролях: Генри Кавилл, Арми Хаммер, Алисия Викандер, Элизабет Дебики, Хью Грант, Лука Кальвани, Сильвестр Грот, Джаред Харрис, Кристиан Беркель, Миша Кузнецов
Описание: Наполеон Соло — агент ЦРУ, на счету которого огромное количество успешно проведенных операций. Он считается одним из лучших секретных агентов во всем мире, и с ним может сравниться только один человек — самый молодой и перспективный агент КГБ, Илья Курякин. Их противостояние переросло в настоящую войну, в которой никто не собирается уступать. Однако обстоятельства складываются так, что непримиримые враги вынуждены стать напарниками. Это происходит после того как спецслужбы двух стран обнаруживают международную преступную организацию, которой удалось создать ядерную бомбу...
Доп. информация:
Релиз группы:
Сохранены оригинальные главы как на Bluray
Качество видео: BDRip-AVC | Агенты А.Н.К.Л. / The Man from U.N.C.L.E. (2015) 1080p BD-Remux| HD club
Формат видео: MKV
Видео: 1152x480 (2:40:1), 23,976 fps, 3064 Кbps, 0.231 bit/pixe
Аудио: 48 kHz, AC3 Dolby Digital, 3/2 (L,C,R,l,r) + LFE ch, ~448.00 kbps avg DUB
Аудио 2: 48 kHz, AC3 Dolby Digital, 3/2 (L,C,R,l,r) + LFE ch, ~448.00 kbps avg ENG
Формат субтитров: softsub (SRT)
Доп. информация о субтитрах: отключаемые

Знаете ли Вы что

• Генри Кавилл, который сыграл Наполеона Соло в этом фильме, также сыграл супермена в фильме «Человек из стали» (2013). Актер Роберт Вон, который сыграл Наполеона Соло в оригинальном сериале «Агенты А. Н. К. Л.» (1964-1968), сыграл злодея в фильме «Супермен 3» (1983).
• Более десяти лет понадобилось студии Warner Bros., чтобы снять этот фильм.
• «U.N.C.L.E.» расшифровывается как «United Network Command for Law and Enforcement».
• Первоначально, главную роль планировал исполнить Джордж Клуни, однако он выбыл из-за проблем со здоровьем.
• Джозеф Гордон-Левитт, Райан Гослинг, Александр Скарсгард, Юэн МакГрегор, Роберт Паттинсон, Мэтт Дэймон, Кристиан Бэйл, Майкл Фассбендер, Брэдли Купер, Леонардо Ди Каприо, Юэль Киннаман, Рассел Кроу, Крис Пайн, Райан Рейнольдс и Джон Хэмм значились в кандидатах на главную роль.
• Джемма Артертон, Элис Ив, Мия Васиковска, Эмилия Кларк, Фелисити Джонс, Тереза Палмер и Сара Гадон прослушивались на роль, которую получила Алисия Викандер.
• Том Круз был приглашен на роль Наполеона Соло, однако он решил сосредоточиться на фильме «Миссия невыполнима 5». Генри Кавилл, который изначально должен был исполнить другую роль, заменил Тома.
• Джоэл Эдгертон и Генри Кавилл пробовались на роль, которая досталась Арми Хаммеру. Генри Кавилл впоследствии получил другую роль.
• Большинство трюков Генри Кавилл и Арми Хаммер выполнили самостоятельно.
• Стивен Содерберг изначально собирался занять место режиссера, но покинул проект из-за разногласий со студией касательно бюджета и подбора актеров.
• В фильме Илья Курякин использует модифицированный пистолет «Walther p38». Это отсылка к «Walther p38» из оригинального сериала «Агенты А. Н. К. Л.» (1964-1968). Более того, этот пистолет абсолютно идентичен тому, который японцы использовали в начале 1980-х годов при создании игрушки «Microman», которая трансформировалась из пистолета в робота. Позже дизайн этой игрушки был куплен американской компанией «Hasbro», которая стала продавать эту игрушку уже как трансформера Мегатрона (G1) из мультсериала «Трансформеры» (1984-1987).
• События фильма разворачиваются через год или два после кубинского ракетного кризиса. Это оригинальная история, которая не рассказывалась в сериале «Агенты А. Н. К. Л.» (1964-1968).
• Некоторые из костюмов, использованных в фильме, на самом деле являются винтажной одеждой.
• Источником вдохновения для Гая Ричи стал фильм «Буч Кэссиди и Сандэнс Кид» (1969).
• Съемки фильма проходили в самом длинном звуковом киносъемочном павильоне в Лондоне.
• Все сцены с участием Хью Гранта были отсняты за три недели.

Ошибки в фильме

• Илья надевает Габи кольцо на левую руку, а невеста советского архитектора никак не может носить обручальное кольцо на этой руке.
• На приеме Виктории Винчигуэрры Наполеон при «случайном» объятии снимает с нее толстую золотую цепь, как показано во флэшбэке в их разговоре. Однако чуть ранее в фильме видно, что после объятия цепь еще оставалась на Виктории.

MediaInfo

General
Unique ID : 244270401032211058249471736573929026443 (0xB7C4C49AD4DE1119B87C40AF581D738B)
Complete name : D:\Мои рипы\Агенты А.Н.К.Л\The Man from U.N.C.L.E. by_IVAN@190282.mkv
Format : Matroska
Format version : Version 4 / Version 2
File size : 3.29 GiB
Duration : 1h 56mn
Overall bit rate : 4 040 Kbps
Movie name : The Man from U.N.C.L.E. by_IVAN@190282
Encoded date : UTC 2016-02-26 08:14:41
Writing application : mkvmerge v8.8.0 ('Wind at my back') 64bit
Writing library : libebml v1.3.3 + libmatroska v1.4.4
Attachements : cover.jpg
DURATION : 01:53:41.690000000
NUMBER_OF_FRAMES : 1331
NUMBER_OF_BYTES : 42955
_STATISTICS_WRITING_APP : mkvmerge v8.8.0 ('Wind at my back') 64bit
_STATISTICS_WRITING_DATE_UT : 2016-02-26 08:14:41
_STATISTICS_TAGS : BPS DURATION NUMBER_OF_FRAMES NUMBER_OF_BYTES
Video
ID : 1
Format : AVC
Format/Info : Advanced Video Codec
Format profile : High@L4.1
Format settings, CABAC : Yes
Format settings, ReFrames : 11 frames
Codec ID : V_MPEG4/ISO/AVC
Duration : 1h 56mn
Bit rate : 3 063 Kbps
Width : 1 152 pixels
Height : 480 pixels
Display aspect ratio : 2.40:1
Frame rate mode : Constant
Frame rate : 23.976 fps
Color space : YUV
Chroma subsampling : 4:2:0
Bit depth : 8 bits
Scan type : Progressive
Bits/(Pixel*Frame) : 0.231
Stream size : 2.49 GiB (76%)
Title : The Man from U.N.C.L.E. by_IVAN@190282
Writing library : x264 core 148 r2638kMod 7599210
Encoding settings : cabac=1 / ref=11 / deblock=1:-3:-2 / analyse=0x3:0x133 / me=umh / subme=11 / psy=1 / fade_compensate=0.00 / psy_rd=1.00:0.05 / mixed_ref=1 / me_range=48 / chroma_me=1 / trellis=2 / 8x8dct=1 / cqm=0 / deadzone=21,11 / fast_pskip=0 / chroma_qp_offset=-3 / threads=6 / lookahead_threads=6 / sliced_threads=0 / nr=0 / decimate=1 / interlaced=0 / bluray_compat=0 / constrained_intra=0 / fgo=0 / bframes=16 / b_pyramid=2 / b_adapt=2 / b_bias=0 / direct=3 / weightb=1 / open_gop=0 / weightp=2 / keyint=240 / keyint_min=23 / scenecut=40 / intra_refresh=0 / rc_lookahead=60 / rc=crf / mbtree=0 / crf=17.2000 / qcomp=0.60 / qpmin=0 / qpmax=69 / qpstep=4 / vbv_maxrate=50000 / vbv_bufsize=62500 / crf_max=0.0 / nal_hrd=none / filler=0 / ip_ratio=1.40 / pb_ratio=1.30 / aq=2:1.10
Language : English
Default : Yes
Forced : No
Color range : Limited
Color primaries : BT.709
Transfer characteristics : BT.709
Matrix coefficients : BT.709
DURATION : 01:56:29.650000000
NUMBER_OF_FRAMES : 167584
NUMBER_OF_BYTES : 2744475706
_STATISTICS_WRITING_APP : mkvmerge v8.8.0 ('Wind at my back') 64bit
_STATISTICS_WRITING_DATE_UT : 2016-02-26 08:14:41
_STATISTICS_TAGS : BPS DURATION NUMBER_OF_FRAMES NUMBER_OF_BYTES
Audio #1
ID : 2
Format : AC-3
Format/Info : Audio Coding 3
Mode extension : CM (complete main)
Format settings, Endianness : Big
Codec ID : A_AC3
Duration : 1h 56mn
Bit rate mode : Constant
Bit rate : 448 Kbps
Channel(s) : 6 channels
Channel positions : Front: L C R, Side: L R, LFE
Sampling rate : 48.0 KHz
Compression mode : Lossy
Stream size : 373 MiB (11%)
Title : Dub BD CEE
Default : Yes
Forced : No
Audio #2
ID : 3
Format : AC-3
Format/Info : Audio Coding 3
Mode extension : CM (complete main)
Format settings, Endianness : Big
Codec ID : A_AC3
Duration : 1h 56mn
Bit rate mode : Constant
Bit rate : 448 Kbps
Channel(s) : 6 channels
Channel positions : Front: L C R, Side: L R, LFE
Sampling rate : 48.0 KHz
Compression mode : Lossy
Stream size : 373 MiB (11%)
Title : Eng
Language : English
Default : No
Forced : No
Text #1
ID : 4
Format : UTF-8
Codec ID : S_TEXT/UTF8
Codec ID/Info : UTF-8 Plain Text
Title : Rus forsed
Default : Yes
Forced : Yes
Text #2
ID : 5
Format : UTF-8
Codec ID : S_TEXT/UTF8
Codec ID/Info : UTF-8 Plain Text
Title : Rus
Default : No
Forced : No
Text #3
ID : 6
Format : UTF-8
Codec ID : S_TEXT/UTF8
Codec ID/Info : UTF-8 Plain Text
Title : Eng
Language : English
Default : No
Forced : No
Menu
00:00:00.000 : en:Chapter 1
00:15:19.083 : en:Chapter 2
00:23:11.681 : en:Chapter 3
00:32:09.301 : en:Chapter 4
00:40:36.056 : en:Chapter 5
00:49:07.568 : en:Chapter 6
00:59:23.559 : en:Chapter 7
01:08:52.837 : en:Chapter 8
01:20:28.113 : en:Chapter 9
01:29:47.671 : en:Chapter 10
01:43:21.360 : en:Chapter 11
01:49:23.430 : en:Chapter 12

x264 log

VIDEO ENCODING
x264 [info]: frame I:1459 Avg QP:14.76 size: 75636 PSNR Mean Y:48.18 U:51.67 V:51.29 Avg:49.01 Global:48.51
x264 [info]: frame P:38151 Avg QP:16.49 size: 32185 PSNR Mean Y:46.77 U:50.44 V:49.93 Avg:47.62 Global:46.94
x264 [info]: frame B:127974 Avg QP:18.86 size: 10988 PSNR Mean Y:45.78 U:49.92 V:49.46 Avg:46.70 Global:46.10
x264 [info]: consecutive B-frames: 3.5% 4.0% 7.1% 20.3% 17.5% 31.6% 6.5% 3.7% 1.8% 0.9% 0.8% 0.8% 0.6% 0.4% 0.2% 0.3% 0.2%
x264 [total]: encoded 167584 frames, 6.31 fps, 3141.19 kb/s, duration 7:22:24.35

Скриншот c названием фильма

Скриншоты

Убедительная просьба пожалуйста кто скачал не бросайте раздачу!!!
 GOLD TORRENT! DOWNLOAD TRAFFIC DOES NOT CONSIDER! 
Torrent: Registered [ 2020-06-06 06:59 ]   · E0A02F3C5D3188E63594459CD8B7818C22A9C68F

Download .torrent

Download

17 KB

Status: checked
Completed: 0 times
Size: 3.29 GB
Поделиться:
terms.php
[Profile] [PM]
Display posts:    
Reply to topic

Current time is: 28-Oct 02:08

All times are UTC + 3



You cannot post new topics in this forum
You cannot reply to topics in this forum
You cannot edit your posts in this forum
You cannot delete your posts in this forum
You cannot vote in polls in this forum
You cannot attach files in this forum
You can download files in this forum