Последний охотник на ведьм / The Last Witch Hunter (Брек Эйснер / Breck Eisner) [2015, США, Китай, Канада, фэнтези, боевик, приключения, BDRip-AVC] Dub + Sub Rus, Eng + Original Eng

Reply to topic
DL-List and Torrent activity
Size:  4.05 GB   |    Registered:  3 months 23 days   |    Completed:  0 times

Seeder not seen: Never

 
   
 
 
Author Message

admin ®

Gender: Male

Longevity: 3 years

Posts: 10018

Post 07-Oct-2017 05:23

[Quote]

Последний охотник на ведьмThe Last Witch Hunter«Вечно жить. Вечно убивать»

Страна: США, Китай, Канада
Жанр: фэнтези, боевик, приключения
Год выпуска: 2015
Продолжительность: 01:46:34
Перевод: Профессиональный (дублированный) BD RUS
Субтитры: русские,английские
Оригинальная аудиодорожка: английский
Режиссер: Брек Эйснер / Breck Eisner
В ролях: Вин Дизель, Роуз Лесли, Элайджа Вуд, Оулавюр Дарри Оулафссон, Рина Оуэн, Юли Энгельбрехт, Майкл Кейн, Джозеф Гилган, Исаак Де Банколе, Майкл Халсли
Описание: Современный мир скрывает множество секретов, но самым удивительным из них является то, что ведьмы до сих пор живут среди нас. Это злобные сверхъестественные существа, чья цель - наслать на мир смертоносную чуму. Армии охотников на ведьм сражались с ними на протяжении многих веков.
В наши дни остался всего лишь один охотник на ведьм, Колдер, которому однажды удалось убить всемогущую королеву ведьм. Но Колдер еще не знает, что королева воскресла и жаждет отомстить своему убийце...
Доп. информация:
Релиз группы:
Сохранены оригинальные главы как на Bluray
Качество видео: BDRip-AVC | Последний охотник на ведьм / The Last Witch Hunter (2015) 1080p BD-Remux| HD club
Формат видео: MKV
Видео: 1152x480 (2:40:1), 23,976 fps, 4436 Кbps, 0.335 bit/pixe
Аудио: 48 kHz, AC3 Dolby Digital, 3/2 (L,C,R,l,r) + LFE ch, ~440.00 kbps avg DUB
Аудио 2: 48 kHz, AC3 Dolby Digital, 3/2 (L,C,R,l,r) + LFE ch, ~448.00 kbps avg ENG
Формат субтитров: softsub (SRT)
Доп. информация о субтитрах: отключаемые

Знаете ли Вы что

• Саундтреком к фильму является кавер на песню группы The Rolling Stones - Paint it Black в исполнении певицы Сиары.
• Сценарий этого фильма был в «Черном списке» лучших неспродюсированных сценариев 2010 года.
• Сцена показа мод была снята в Музее естественной истории Карнеги.
• Первоначально планировалось, что режиссером проекта станет Тимур Бекмамбетов.

MediaInfo

General
Unique ID : 253041309781055981749020287519654568822 (0xBE5DFBCB133A51F794F1BA49BC166376)
Complete name : D:\Мои рипы\Последний охотник на ведьм\The Last Witch Hunter by_IVAN@190282.mkv
Format : Matroska
Format version : Version 2
File size : 4.05 GiB
Duration : 1h 46mn
Overall bit rate : 5 439 Kbps
Encoded date : UTC 2016-03-14 20:59:17
Writing application : mkvmerge v7.8.0 ('River Man') 32bit built on Apr 3 2015 12:11:22
Writing library : libebml v1.3.1 + libmatroska v1.4.2
Attachements : cover.jpg
DURATION : 01:35:43.160000000
NUMBER_OF_FRAMES : 897
NUMBER_OF_BYTES : 28497
_STATISTICS_WRITING_APP : mkvmerge v8.8.0 ('Wind at my back') 64bit
_STATISTICS_WRITING_DATE_UT : 2016-03-14 17:21:29
_STATISTICS_TAGS : BPS DURATION NUMBER_OF_FRAMES NUMBER_OF_BYTES
Video
ID : 1
Format : AVC
Format/Info : Advanced Video Codec
Format profile : High@L4.1
Format settings, CABAC : Yes
Format settings, ReFrames : 11 frames
Codec ID : V_MPEG4/ISO/AVC
Duration : 1h 46mn
Bit rate : 4 435 Kbps
Width : 1 152 pixels
Height : 480 pixels
Display aspect ratio : 2.40:1
Frame rate mode : Constant
Frame rate : 23.976 fps
Color space : YUV
Chroma subsampling : 4:2:0
Bit depth : 8 bits
Scan type : Progressive
Bits/(Pixel*Frame) : 0.334
Stream size : 3.30 GiB (82%)
Title : The Last Witch Hunter by_IVAN@190282
Writing library : x264 core 148 r2638kMod 7599210
Encoding settings : cabac=1 / ref=11 / deblock=1:-3:-2 / analyse=0x3:0x133 / me=umh / subme=11 / psy=1 / fade_compensate=0.00 / psy_rd=1.00:0.05 / mixed_ref=1 / me_range=48 / chroma_me=1 / trellis=2 / 8x8dct=1 / cqm=0 / deadzone=21,11 / fast_pskip=0 / chroma_qp_offset=-3 / threads=6 / lookahead_threads=6 / sliced_threads=0 / nr=0 / decimate=1 / interlaced=0 / bluray_compat=0 / constrained_intra=0 / fgo=0 / bframes=16 / b_pyramid=2 / b_adapt=2 / b_bias=0 / direct=3 / weightb=1 / open_gop=0 / weightp=2 / keyint=240 / keyint_min=23 / scenecut=40 / intra_refresh=0 / rc_lookahead=60 / rc=crf / mbtree=0 / crf=17.1000 / qcomp=0.60 / qpmin=0 / qpmax=69 / qpstep=4 / vbv_maxrate=50000 / vbv_bufsize=62500 / crf_max=0.0 / nal_hrd=none / filler=0 / ip_ratio=1.40 / pb_ratio=1.30 / aq=2:1.10
Language : English
Default : Yes
Forced : No
Color range : Limited
Color primaries : BT.709
Transfer characteristics : BT.709
Matrix coefficients : BT.709
DURATION : 01:46:34.347000000
NUMBER_OF_FRAMES : 153311
NUMBER_OF_BYTES : 3629345588
_STATISTICS_WRITING_APP : mkvmerge v8.8.0 ('Wind at my back') 64bit
_STATISTICS_WRITING_DATE_UT : 2016-03-14 17:21:29
_STATISTICS_TAGS : BPS DURATION NUMBER_OF_FRAMES NUMBER_OF_BYTES
Audio #1
ID : 2
Format : AC-3
Format/Info : Audio Coding 3
Mode extension : CM (complete main)
Format settings, Endianness : Big
Codec ID : A_AC3
Duration : 1h 46mn
Bit rate mode : Constant
Bit rate : 448 Kbps
Channel(s) : 6 channels
Channel positions : Front: L C R, Side: L R, LFE
Sampling rate : 48.0 KHz
Compression mode : Lossy
Stream size : 341 MiB (8%)
Title : BD RUS
Language : Russian
Default : Yes
Forced : No
Audio #2
ID : 3
Format : AC-3
Format/Info : Audio Coding 3
Mode extension : CM (complete main)
Format settings, Endianness : Big
Codec ID : A_AC3
Duration : 1h 46mn
Bit rate mode : Constant
Bit rate : 448 Kbps
Channel(s) : 6 channels
Channel positions : Front: L C R, Side: L R, LFE
Sampling rate : 48.0 KHz
Compression mode : Lossy
Stream size : 341 MiB (8%)
Title : Eng
Language : English
Default : No
Forced : No
Text #1
ID : 4
Format : UTF-8
Codec ID : S_TEXT/UTF8
Codec ID/Info : UTF-8 Plain Text
Title : Rus
Language : Russian
Default : No
Forced : No
Text #2
ID : 5
Format : UTF-8
Codec ID : S_TEXT/UTF8
Codec ID/Info : UTF-8 Plain Text
Title : Eng
Language : English
Default : No
Forced : No
Menu
00:00:00.000 : en:Chapter 1
00:08:01.564 : en:Chapter 2
00:16:26.235 : en:Chapter 3
00:25:18.516 : en:Chapter 4
00:31:01.067 : en:Chapter 5
00:36:48.247 : en:Chapter 6
00:43:08.919 : en:Chapter 7
00:47:09.493 : en:Chapter 8
00:54:09.329 : en:Chapter 9
01:00:32.962 : en:Chapter 10
01:08:02.202 : en:Chapter 11
01:14:44.104 : en:Chapter 12
01:21:04.067 : en:Chapter 13
01:29:14.974 : en:Chapter 14
01:32:57.321 : en:Chapter 15
01:37:28.342 : en:Chapter 16
01:46:34.137 : en:Chapter 17

x264 log

VIDEO ENCODING
x264 [info]: frame I:1106 Avg QP:14.85 size: 99095 PSNR Mean Y:48.25 U:50.95 V:50.77 Avg:48.95 Global:47.91
x264 [info]: frame P:37134 Avg QP:16.59 size: 41853 PSNR Mean Y:46.71 U:49.68 V:49.32 Avg:47.44 Global:46.30
x264 [info]: frame B:115071 Avg QP:18.73 size: 17081 PSNR Mean Y:45.48 U:48.77 V:48.43 Avg:46.27 Global:45.02
x264 [info]: consecutive B-frames: 3.3% 8.3% 8.3% 16.2% 17.3% 35.3% 5.4% 1.3% 1.3% 1.0% 0.7% 0.5% 0.4% 0.2% 0.2% 0.1% 0.2%
x264 [total]: encoded 153311 frames, 3.64 fps, 4502.69 kb/s, duration 11:41:51.30

Скриншот c названием фильма

Скриншоты

Убедительная просьба пожалуйста кто скачал не бросайте раздачу!!!
 GOLD TORRENT! DOWNLOAD TRAFFIC DOES NOT CONSIDER! 
Torrent: Registered [ 2020-06-06 07:04 ]   · DFEFC5E8C957702301F2ACA69AF7CBB82A61FB41

Download .torrent

Download

11 KB

Status: checked
Completed: 0 times
Size: 4.05 GB
Поделиться:
terms.php
[Profile] [PM]
Display posts:    
Reply to topic

Current time is: 29-Sep 09:37

All times are UTC + 3



You cannot post new topics in this forum
You cannot reply to topics in this forum
You cannot edit your posts in this forum
You cannot delete your posts in this forum
You cannot vote in polls in this forum
You cannot attach files in this forum
You can download files in this forum