Третий лишний 2 / Ted 2 (Сет МакФарлейн / Seth MacFarlane) [2015, США, Комедия, BDRip-AVC] Dub + Sub Eng + Original Eng

Reply to topic
DL-List and Torrent activity
Size:  2.88 GB   |    Registered:  2 years 11 months   |    Completed:  0 times

Seeder not seen: Never

 
   
 
 
Author Message

admin ®

Gender: Male

Longevity: 3 years

Posts: 10017

Post 07-Oct-2017 05:07

[Quote]

Третий лишний 2Ted 2«Плюшевый беспредельщик возвращается»

Страна: США
Жанр: Комедия
Год выпуска: 2015
Продолжительность: 01:55:32
Перевод: Профессиональный (дублированный) iTunes
Субтитры: английские
Оригинальная аудиодорожка: английский
Режиссер: Сет МакФарлейн / Seth MacFarlane
В ролях: Марк Уолберг, Сет МакФарлейн, Аманда Сайфред, Джованни Рибизи, Джон Слэттери, Морган Фриман, Джессика Барт, Сэм Дж. Джонс, Патрик Варбертон, Майкл Дорн
Описание: Плюшевый беспредельщик продолжает сводить с ума чопорную интеллигенцию. На этот раз говорящий медвежонок с большим эго и его длинноногая блондинка решили завести ребёнка. Там, где не постаралась природа, на помощь приходят звёздные доноры, городские сумасшедшие и верный друг Джонни. Он только что расстался с Лори и готов к новым авантюрам. Третий здесь совсем не лишний.
Доп. информация:
Релиз группы:
Сохранены оригинальные главы как на Bluray
Качество видео: BDRip-AVC | Третий лишний 2 / Ted 2 (2015) 1080p BD-Remux| HD club
Формат видео: MKV
Видео: 1152x480 (2:40:1), 23,976 fps, 2668 Кbps, 0.201 bit/pixe
Аудио: 48 kHz, AC3 Dolby Digital, 3/2 (L,C,R,l,r) + LFE ch, ~384.00 kbps avg DUB
Аудио 2: 48 kHz, AC3 Dolby Digital, 3/2 (L,C,R,l,r) + LFE ch, ~448.00 kbps avg ENG
Формат субтитров: softsub (SRT)
Доп. информация о субтитрах: отключаемые

Знаете ли Вы что

Мила Кунис не смогла сыграть роль Лори, потому что была беременна ребенком от Эштона Кутчера.
У Стивена Коллинза была эпизодическая роль в этом фильме. Однако после его признания в растлении малолетних девушек, сцены с его участием были удалены.
Когда Тед поет, чтобы доказать, что у него есть душа, он поет ту же песню, что пел Брайан Гриффин в 7-й серии 4-го сезона сериала «Гриффины» (1999) (Brian the Bachelor).
Песня, которую Аманда Сайфред поет в сцене у костра, актриса исполняла сама. Эта песня была написана специально для фильма, текст придумал Сет МакФарлейн.
Сюжет фильма пришел в голову Сету МакФарлейну после прочтения серии романов Джона Джейкса о Гражданской войне, во время съемок фильма «Миллион способов потерять голову» (2014).
Сцена, в которой Джон опрокидывает на себя медицинский шкаф-стеллаж с образцами спермы, повторяет сцену с Питером Гриффином из 22-й серии 4-го сезона сериала «Гриффины» (1999) (Sibling Rivalry).
Крик Вильгельма можно услышать в сцене драки на Comic-Con.
Когда Тед ведет машину, он пародирует классическую сцену Джона Кэнди из фильма «Самолетом, поездом, машиной» (1987).
В трейлере есть сцена автомобильной погони, в которой происходит авария, после чего Саманта спрашивает Теда и Джона - в порядке ли они. Этой сцены нет в финальной версии фильма.
В сцене на Comic-Con персонаж Патрика Варбертона одет в костюм Тика, а персонаж Майкла Дорна в костюм Ворфа. Варбертон играл Тика в сериале «Тик-герой» (2001-2002), Дорн играл лейтенанта Ворфа в сериале «Звездный путь: Следующее поколение» (1987-1994).
Персонаж Моргана Фримана был назван в честь сценариста сериала «Гриффины» (1999) Патрика Мейяна.
Когда Джон, Сэм и Тед находят поле марихуаны, Сам говорит, что «сюда должны были послать поэта» - это отсылка к аналогичной фразе Джоди Фостер из фильма «Контакт» (1997).
Во время сцены драки на Comic Con, в одном кадре можно заметить Питера Гриффина, который дерется с курицей, это отсылка к дракам этих персонажей в сериале «Гриффины» (1999).
В сцене, где Том Брэди выбрасывает Теда с балкона, на Теде надеты дождевой плащ и желтая шляпа, однако в этой же сцене, показанной в превью фильма, на Теде не было ни плаща, ни шляпы.

MediaInfo

General
Unique ID : 244640560435411761064981889263579740229 (0xB80C0EDF5777E32685E02ADD9210B845)
Complete name : D:\Мои рипы\Третий лишний 2\Ted 2 by_IVAN@.190282.mkv
Format : Matroska
Format version : Version 4 / Version 2
File size : 2.88 GiB
Duration : 1h 55mn
Overall bit rate : 3 571 Kbps
Movie name : Ted 2 by_IVAN@190282
Encoded date : UTC 2016-02-27 18:46:07
Writing application : mkvmerge v8.8.0 ('Wind at my back') 64bit
Writing library : libebml v1.3.3 + libmatroska v1.4.4
Attachements : cover.jpg
DURATION : 01:47:54.134000000
NUMBER_OF_FRAMES : 2160
NUMBER_OF_BYTES : 74907
_STATISTICS_WRITING_APP : mkvmerge v8.8.0 ('Wind at my back') 64bit
_STATISTICS_WRITING_DATE_UT : 2016-02-27 18:46:07
_STATISTICS_TAGS : BPS DURATION NUMBER_OF_FRAMES NUMBER_OF_BYTES
Video
ID : 1
Format : AVC
Format/Info : Advanced Video Codec
Format profile : High@L4.1
Format settings, CABAC : Yes
Format settings, ReFrames : 11 frames
Codec ID : V_MPEG4/ISO/AVC
Duration : 1h 55mn
Bit rate : 2 668 Kbps
Width : 1 152 pixels
Height : 480 pixels
Display aspect ratio : 2.40:1
Frame rate mode : Constant
Frame rate : 23.976 fps
Color space : YUV
Chroma subsampling : 4:2:0
Bit depth : 8 bits
Scan type : Progressive
Bits/(Pixel*Frame) : 0.201
Stream size : 2.15 GiB (75%)
Title : Ted 2 by_IVAN@190282
Writing library : x264 core 148 r2638kMod 7599210
Encoding settings : cabac=1 / ref=11 / deblock=1:-3:-2 / analyse=0x3:0x133 / me=umh / subme=11 / psy=1 / fade_compensate=0.00 / psy_rd=1.00:0.05 / mixed_ref=1 / me_range=48 / chroma_me=1 / trellis=2 / 8x8dct=1 / cqm=0 / deadzone=21,11 / fast_pskip=0 / chroma_qp_offset=-3 / threads=6 / lookahead_threads=6 / sliced_threads=0 / nr=0 / decimate=1 / interlaced=0 / bluray_compat=0 / constrained_intra=0 / fgo=0 / bframes=16 / b_pyramid=2 / b_adapt=2 / b_bias=0 / direct=3 / weightb=1 / open_gop=0 / weightp=2 / keyint=240 / keyint_min=23 / scenecut=40 / intra_refresh=0 / rc_lookahead=60 / rc=crf / mbtree=0 / crf=16.6000 / qcomp=0.60 / qpmin=0 / qpmax=69 / qpstep=4 / vbv_maxrate=50000 / vbv_bufsize=62500 / crf_max=0.0 / nal_hrd=none / filler=0 / ip_ratio=1.40 / pb_ratio=1.30 / aq=2:1.10
Language : English
Default : Yes
Forced : No
Color range : Limited
Color primaries : BT.709
Transfer characteristics : BT.709
Matrix coefficients : BT.709
DURATION : 01:55:32.217000000
NUMBER_OF_FRAMES : 166207
NUMBER_OF_BYTES : 2371404139
_STATISTICS_WRITING_APP : mkvmerge v8.8.0 ('Wind at my back') 64bit
_STATISTICS_WRITING_DATE_UT : 2016-02-27 18:46:07
_STATISTICS_TAGS : BPS DURATION NUMBER_OF_FRAMES NUMBER_OF_BYTES
Audio #1
ID : 2
Format : AC-3
Format/Info : Audio Coding 3
Mode extension : CM (complete main)
Format settings, Endianness : Big
Codec ID : A_AC3
Duration : 1h 55mn
Bit rate mode : Constant
Bit rate : 384 Kbps
Channel(s) : 6 channels
Channel positions : Front: L C R, Side: L R, LFE
Sampling rate : 48.0 KHz
Compression mode : Lossy
Stream size : 317 MiB (11%)
Title : Dub
Default : Yes
Forced : No
Audio #2
ID : 3
Format : AC-3
Format/Info : Audio Coding 3
Mode extension : CM (complete main)
Format settings, Endianness : Big
Codec ID : A_AC3
Duration : 1h 55mn
Bit rate mode : Constant
Bit rate : 448 Kbps
Channel(s) : 6 channels
Channel positions : Front: L C R, Side: L R, LFE
Sampling rate : 48.0 KHz
Compression mode : Lossy
Stream size : 370 MiB (13%)
Title : Eng
Language : English
Default : No
Forced : No
Text
ID : 4
Format : UTF-8
Codec ID : S_TEXT/UTF8
Codec ID/Info : UTF-8 Plain Text
Title : Eng
Language : English
Default : No
Forced : No
Menu
00:00:00.000 : en:Chapter 1
00:07:14.559 : en:Chapter 2
00:14:47.511 : en:Chapter 3
00:19:13.861 : en:Chapter 4
00:27:33.443 : en:Chapter 5
00:34:18.097 : en:Chapter 6
00:42:45.145 : en:Chapter 7
00:47:57.875 : en:Chapter 8
00:54:27.681 : en:Chapter 9
00:58:45.563 : en:Chapter 10
01:04:06.551 : en:Chapter 11
01:09:49.393 : en:Chapter 12
01:13:59.935 : en:Chapter 13
01:18:03.220 : en:Chapter 14
01:24:24.768 : en:Chapter 15
01:29:22.732 : en:Chapter 16
01:34:57.483 : en:Chapter 17
01:39:42.434 : en:Chapter 18
01:44:33.475 : en:Chapter 19
01:48:26.750 : en:Chapter 20

x264 log

VIDEO ENCODING
x264 [info]: frame I:1765 Avg QP:15.33 size: 98131 PSNR Mean Y:47.45 U:50.23 V:50.12 Avg:48.14 Global:47.49
x264 [info]: frame P:38278 Avg QP:17.26 size: 29539 PSNR Mean Y:45.82 U:49.62 V:49.13 Avg:46.62 Global:45.67
x264 [info]: frame B:126164 Avg QP:19.69 size: 8461 PSNR Mean Y:45.36 U:49.19 V:48.77 Avg:46.15 Global:45.21
x264 [info]: consecutive B-frames: 3.1% 2.8% 10.0% 24.9% 19.3% 27.9% 5.9% 2.5% 1.3% 0.7% 0.6% 0.3% 0.2% 0.1% 0.0% 0.0% 0.2%
x264 [total]: encoded 166207 frames, 4.45 fps, 2736.68 kb/s, duration 10:23:11.18

Скриншот c названием фильма

Скриншоты

Убедительная просьба пожалуйста кто скачал не бросайте раздачу!!!
 GOLD TORRENT! DOWNLOAD TRAFFIC DOES NOT CONSIDER! 
Torrent: Registered [ 2017-10-07 05:07 ]   · F68E4CFD187B0722E13D6E11B33D5ABB335D9F80

Download .torrent

Download

15 KB

Status: checked
Completed: 0 times
Size: 2.88 GB
Поделиться:
terms.php
[Profile] [PM]
Display posts:    
Reply to topic

Current time is: 28-Sep 07:28

All times are UTC + 3



You cannot post new topics in this forum
You cannot reply to topics in this forum
You cannot edit your posts in this forum
You cannot delete your posts in this forum
You cannot vote in polls in this forum
You cannot attach files in this forum
You can download files in this forum