Стрелок / The Contractor (Джозеф Руснак / Josef Rusnak) [2007, Болгария, Великобритания, США, Боевик, триллер, драма, BDRip-AVC] MVO + Sub Rus

Reply to topic
DL-List and Torrent activity
Size:  1.45 GB   |    Registered:  2 years 11 months   |    Completed:  0 times
Seeders:  1  [  0 KB/s  ]   Show peers in full details
 
   
 
 
Author Message

admin ®

Gender: Male

Longevity: 3 years

Posts: 10018

Post 07-Oct-2017 05:01

[Quote]

СтрелокThe Contractor«The world's greatest marksman is now a marked man...»
Страна: Болгария, Великобритания, США
Жанр: Боевик, триллер, драма
Год выпуска: 2007
Продолжительность: 01:38:30
Перевод: Профессиональный (многоголосый закадровый)
Субтитры: русские,английские
Оригинальная аудиодорожка: нет
Режиссер: Джозеф Руснак / Josef Rusnak
В ролях: Уэсли Снайпс, Лина Хиди, Элиза Беннетт, Ральф Браун, Чарлз Дэнс, Джемма Джоунс, Айэйн Робертсон, Ричард Харрингтон, Райан МакКласки, Джон Стандинг, Станимир Стаматов, Милош Мирослав, Велизар Бинев, Николай Сотиров
Описание: Отставной стрелок Джеймс Дайл, живет на своем ранчо в штате Монтана. В свое время он был лучшим снайпером ЦРУ, принимавшим участие в самых сложных и засекреченных операциях.
К нему наведывается бывшее начальство, чтобы поручить последнее дело — устранить приговоренного к суду террориста в Лондоне, который даже в случае обвинительного приговора способен продолжать свою деятельность из-за стен тюрьмы. То, что было бы обычной миссией для снайпера, превращается в кошмар, поскольку цена проигрыша в этой игре — жизнь самого Дайла.
Доп. информация:

Качество видео: BDRip-AVC |Стрелок / The Contractor(2007) 1080p BD-Remux|
Формат видео: MKV
Видео: 1024x576 (16:9), 23,976 fps, 1726 kbps, 0.122 bit/pixel
Аудио: 48 kHz, AC3 Dolby Digital, 6 ch, ~384.00 kbps

MediaInfo

General
Unique ID : 216578653327231491554682313789311251290 (0xA2EF88083E892BA79B2314E2D787735A)
Complete name : F:\Фильмы\Стрелок 1.45\The Contractor.2007.BDRip-AVC.mkv
Format : Matroska
Format version : Version 4 / Version 2
File size : 1.45 GiB
Duration : 1h 38mn
Overall bit rate : 2 109 Kbps
Movie name : Стрелок / The Contractor (2007) BDRip-AVC
Encoded date : UTC 2014-03-20 19:06:11
Writing application : mkvmerge v6.5.0 ('Isn't she lovely') built on Oct 20 2013 12:50:05
Writing library : libebml v1.3.0 + libmatroska v1.4.1
Video
ID : 1
Format : AVC
Format/Info : Advanced Video Codec
Format profile : High@L4.1
Format settings, CABAC : Yes
Format settings, ReFrames : 10 frames
Codec ID : V_MPEG4/ISO/AVC
Duration : 1h 38mn
Bit rate : 1 726 Kbps
Width : 1 024 pixels
Height : 576 pixels
Display aspect ratio : 16:9
Frame rate mode : Constant
Frame rate : 23.976 fps
Color space : YUV
Chroma subsampling : 4:2:0
Bit depth : 8 bits
Scan type : Progressive
Bits/(Pixel*Frame) : 0.122
Stream size : 1.16 GiB (80%)
Writing library : x264 core 138 r2358 9e941d1
Encoding settings : cabac=1 / ref=10 / deblock=1:-1:-1 / analyse=0x3:0x113 / me=umh / subme=11 / psy=1 / psy_rd=1.04:0.08 / mixed_ref=1 / me_range=48 / chroma_me=1 / trellis=2 / 8x8dct=1 / cqm=0 / deadzone=21,11 / fast_pskip=0 / chroma_qp_offset=-3 / threads=6 / lookahead_threads=1 / sliced_threads=0 / nr=0 / decimate=1 / interlaced=0 / bluray_compat=0 / constrained_intra=0 / bframes=5 / b_pyramid=2 / b_adapt=2 / b_bias=0 / direct=3 / weightb=1 / open_gop=0 / weightp=2 / keyint=240 / keyint_min=23 / scenecut=40 / intra_refresh=0 / rc_lookahead=40 / rc=2pass / mbtree=1 / bitrate=1726 / ratetol=1.0 / qcomp=0.60 / qpmin=0 / qpmax=69 / qpstep=4 / cplxblur=20.0 / qblur=0.5 / vbv_maxrate=62500 / vbv_bufsize=78125 / nal_hrd=none / ip_ratio=1.40 / aq=2:1.00
Default : Yes
Forced : No
Audio
ID : 2
Format : AC-3
Format/Info : Audio Coding 3
Mode extension : CM (complete main)
Format settings, Endianness : Big
Codec ID : A_AC3
Duration : 1h 38mn
Bit rate mode : Constant
Bit rate : 384 Kbps
Channel(s) : 6 channels
Channel positions : Front: L C R, Side: L R, LFE
Sampling rate : 48.0 KHz
Bit depth : 16 bits
Compression mode : Lossy
Stream size : 271 MiB (18%)
Title : Профессиональный (многоголосый закадровый)
Language : Russian
Default : Yes
Forced : No
Text #1
ID : 3
Format : UTF-8
Codec ID : S_TEXT/UTF8
Codec ID/Info : UTF-8 Plain Text
Language : Russian
Default : Yes
Forced : No
Text #2
ID : 4
Format : UTF-8
Codec ID : S_TEXT/UTF8
Codec ID/Info : UTF-8 Plain Text
Language : English
Default : No
Forced : No
Menu
00:00:00.000 : :Chapter 01
00:07:27.238 : :Chapter 02
00:12:57.026 : :Chapter 03
00:18:04.374 : :Chapter 04
00:23:42.212 : :Chapter 05
00:30:03.218 : :Chapter 06
00:35:37.635 : :Chapter 07
00:41:00.833 : :Chapter 08
00:47:48.991 : :Chapter 09
00:54:31.726 : :Chapter 10
01:02:10.059 : :Chapter 11
01:07:17.700 : :Chapter 12
01:12:22.755 : :Chapter 13
01:19:29.431 : :Chapter 14
01:27:07.222 : :Chapter 15
01:31:13.217 : :Chapter 16

Скриншот c названием фильма

Скриншоты

 GOLD TORRENT! DOWNLOAD TRAFFIC DOES NOT CONSIDER! 
Torrent: Registered [ 2017-10-07 05:01 ]   · 028C9173FE3A99938401F64E9DB8C66F19CA8331

Download .torrent

Download

15 KB

Status: checked
Completed: 0 times
Size: 1.45 GB
Поделиться:
terms.php
[Profile] [PM]
Display posts:    
Reply to topic

Current time is: 01-Oct 18:45

All times are UTC + 3



You cannot post new topics in this forum
You cannot reply to topics in this forum
You cannot edit your posts in this forum
You cannot delete your posts in this forum
You cannot vote in polls in this forum
You cannot attach files in this forum
You can download files in this forum