Американский пирог представляет: Книга Любви / Американский пирог 7 / American Pie Presents: The Book of Love (Джон Путч /John Putch) [2009, США, Комедия, BDRip-AVC] [Полная версия / Unrated Edition] Dub + Sub Eng + Original Eng

Reply to topic
DL-List and Torrent activity
Size:  3.42 GB   |    Registered:  3 months 20 days   |    Completed:  0 times

Seeder not seen: Never

 
   
 
 
Author Message

admin ®

Gender: Male

Longevity: 3 years

Posts: 10017

Post 07-Oct-2017 04:34

[Quote]

Американский пирог представляет: Книга Любви / Американский пирог 7American Pie Presents: The Book of LoveПолная версия / Unrated Edition«It's the hottest slice yet!»

Страна: США
Жанр: Комедия
Год выпуска: 2009
Продолжительность: 01:33:34
Перевод: Профессиональный (дублированный) R5
Субтитры: английские
Оригинальная аудиодорожка: английский
Режиссер: Джон Путч /John Putch
В ролях: Юджин Леви, Баг Холл, Кевин М. Хортон, Brandon Hardesty, Beth Behrs, Мелани Папалиа, Дженнифер Холлэнд, Джон Патрик Джордан, Синди Басби, Наоми Хьюер и др.
Описание: Спустя десять лет после первого американского Пирога, три новых несчастных девственника обнаруживают «Книгу Любви», скрытую в школьной библиотеке. К сожалению для них, книга «разрушена», и в связи с этим Библия Секса принуждает героев отправиться в веселую поездку, где они и потеряют свою девственность.
Доп. информация:
Релиз группы:
Сохранены оригинальные главы как на BD
Качество видео: BDRip-AVC |Американский пирог представляет: Книга Любви / Американский пирог 7 / American Pie Presents: The Book of Love (2009) 1080p BD-Remux| HD club
Формат видео: MKV
Видео: 1152x648 (16.:9), 23.976 fps, 4290 Кbps, 0.240 bit/pixe
Аудио: 48 kHz, AC3 Dolby Digital, 3/2 (L,C,R,l,r) + LFE ch, 448.00 kbps | DUB
Аудио 2: 48 kHz, AC3 Dolby Digital, 3/2 (L,C,R,l,r) + LFE ch, 448.00 kbps | ENG
Формат субтитров: softsub (SRT)
Доп. информация о субтитрах: отключаемые

MediaInfo

General
Unique ID : 207024360728411371868729420874391725680 (0x9BBF7109B656490489F6225019CFA670)
Complete name : E:\Мои рипы\Американский пирог представляет Книга Любви Американский пирог 7\American Pie Presents The Book of Love by_IVAN@190282.mkv
Format : Matroska
Format version : Version 4 / Version 2
File size : 3.42 GiB
Duration : 1h 33mn
Overall bit rate : 5 226 Kbps
Encoded date : UTC 2016-03-08 19:34:32
Writing application : mkvmerge v8.8.0 ('Wind at my back') 64bit
Writing library : libebml v1.3.3 + libmatroska v1.4.4
Attachements : cover.jpg
DURATION : 01:30:10.947000000
NUMBER_OF_FRAMES : 1354
NUMBER_OF_BYTES : 45420
_STATISTICS_WRITING_APP : mkvmerge v8.8.0 ('Wind at my back') 64bit
_STATISTICS_WRITING_DATE_UT : 2016-03-08 19:34:32
_STATISTICS_TAGS : BPS DURATION NUMBER_OF_FRAMES NUMBER_OF_BYTES
Video
ID : 1
Format : AVC
Format/Info : Advanced Video Codec
Format profile : High@L4.1
Format settings, CABAC : Yes
Format settings, ReFrames : 14 frames
Codec ID : V_MPEG4/ISO/AVC
Duration : 1h 33mn
Bit rate : 4 290 Kbps
Width : 1 152 pixels
Height : 648 pixels
Display aspect ratio : 16:9
Frame rate mode : Constant
Frame rate : 23.976 fps
Color space : YUV
Chroma subsampling : 4:2:0
Bit depth : 8 bits
Scan type : Progressive
Bits/(Pixel*Frame) : 0.240
Stream size : 2.80 GiB (82%)
Title : American Pie Presents The Book of Love by_IVAN@190282
Writing library : x264 core 146 r2538kMod 121396c
Encoding settings : cabac=1 / ref=14 / deblock=1:-3:-3 / analyse=0x3:0x113 / me=umh / subme=11 / psy=1 / fade_compensate=0.00 / psy_rd=1.00:0.15 / mixed_ref=1 / me_range=48 / chroma_me=1 / trellis=2 / 8x8dct=1 / cqm=0 / deadzone=21,11 / fast_pskip=0 / chroma_qp_offset=0 / threads=6 / lookahead_threads=6 / sliced_threads=0 / slices=10 / nr=0 / decimate=1 / interlaced=0 / bluray_compat=0 / constrained_intra=0 / fgo=0 / bframes=16 / b_pyramid=2 / b_adapt=2 / b_bias=0 / direct=3 / weightb=1 / open_gop=1 / weightp=2 / keyint=240 / keyint_min=23 / scenecut=40 / intra_refresh=0 / rc_lookahead=40 / rc=crf / mbtree=0 / crf=17.8000 / qcomp=0.60 / qpmin=0 / qpmax=69 / qpstep=4 / vbv_maxrate=50000 / vbv_bufsize=62500 / crf_max=0.0 / nal_hrd=none / filler=0 / ip_ratio=1.40 / pb_ratio=1.30 / aq=1:1.00
Default : Yes
Forced : No
Color range : Limited
Color primaries : BT.709
Transfer characteristics : BT.709
Matrix coefficients : BT.709
Audio #1
ID : 2
Format : AC-3
Format/Info : Audio Coding 3
Mode extension : CM (complete main)
Format settings, Endianness : Big
Codec ID : A_AC3
Duration : 1h 33mn
Bit rate mode : Constant
Bit rate : 384 Kbps
Channel(s) : 6 channels
Channel positions : Front: L C R, Side: L R, LFE
Sampling rate : 48.0 KHz
Compression mode : Lossy
Stream size : 257 MiB (7%)
Title : Dub
Language : Russian
Default : Yes
Forced : No
Audio #2
ID : 3
Format : AC-3
Format/Info : Audio Coding 3
Mode extension : CM (complete main)
Format settings, Endianness : Big
Codec ID : A_AC3
Duration : 1h 33mn
Bit rate mode : Constant
Bit rate : 448 Kbps
Channel(s) : 6 channels
Channel positions : Front: L C R, Side: L R, LFE
Sampling rate : 48.0 KHz
Compression mode : Lossy
Stream size : 300 MiB (9%)
Title : Eng
Language : English
Default : No
Forced : No
Text
ID : 4
Format : UTF-8
Codec ID : S_TEXT/UTF8
Codec ID/Info : UTF-8 Plain Text
Title : Eng
Language : English
Default : No
Forced : No
Menu
00:00:00.000 : en:Welcome Freshmen
00:04:02.680 : en:Coed Living
00:07:42.040 : en:The Geek House
00:16:28.560 : en:A New Age
00:21:27.960 : en:Party VIP Style
00:27:44.440 : en:Beta Legacy
00:29:37.640 : en:Pledge Tasks
00:34:10.920 : en:Banned Games
00:36:09.680 : en:Self-Control
00:40:40.280 : en:Sex Addict
00:45:36.360 : en:Pleasant Dreams
00:49:15.000 : en:Beta Way of Life
00:57:20.560 : en:Tasks Completed
01:02:40.400 : en:Challenged
01:07:00.000 : en:Behind the Games
01:12:24.880 : en:Afraid to Compete?
01:17:40.520 : en:Puking Doesn't Disqualify
01:21:41.120 : en:Sudden Death
01:27:37.200 : en:Beta House Rules!
01:30:31.280 : en:End Titles

x264 log

VIDEO ENCODING
x264 [info]: frame I:1171 Avg QP:16.04 size:105143
x264 [info]: frame P:30566 Avg QP:17.67 size: 43584
x264 [info]: frame B:102871 Avg QP:18.88 size: 15802
x264 [info]: consecutive B-frames: 2.2% 3.3% 7.5% 31.7% 13.2% 36.1% 1.7% 1.3% 0.3% 0.3% 0.1% 0.3% 0.1% 1.5% 0.1% 0.0% 0.2%
x264 [info]: kb/s:4390.07
x264 [total]: encoded 134608 frames, 4.75 fps, 4390.07 kb/s, duration 7:52:33.53

Скриншот c названием фильма

Скриншоты

Убедительная просьба пожалуйста кто скачал не бросайте раздачу!!!
 GOLD TORRENT! DOWNLOAD TRAFFIC DOES NOT CONSIDER! 
Torrent: Registered [ 2020-06-06 05:48 ]   · 9FB3736E2ABA551B33E6447ECDE427C7C5C2118C

Download .torrent

Download

18 KB

Status: checked
Completed: 0 times
Size: 3.42 GB
Поделиться:
terms.php
[Profile] [PM]
Display posts:    
Reply to topic

Current time is: 26-Sep 09:28

All times are UTC + 3



You cannot post new topics in this forum
You cannot reply to topics in this forum
You cannot edit your posts in this forum
You cannot delete your posts in this forum
You cannot vote in polls in this forum
You cannot attach files in this forum
You can download files in this forum