Защитники (Сарик Андреасян) [2017, Фантастика, фэнтези, боевик, приключения, BDRip-AVC]

Reply to topic
 
Author Message

admin ®

Gender: Male

Longevity: 3 years

Posts: 10019

Post 01-Oct-2017 05:33

[Quote]

Защитники«Отряд советских супергероев»

Жанр: Фантастика, фэнтези, боевик, приключения
Год выпуска: 2017
Продолжительность: 01:29:04
Режиссёр: Сарик Андреасян
В ролях: Антон Пампушный, Санжар Мади, Себастьян Сисак, Алина Ланина, Станислав Ширин, Валерия Шкирандо, Вячеслав Разбегаев, Александр Семенов, Владимир Бутенко, Мила Максимова
Описание: Во времена Холодной войны секретная организация «Патриот» создала отряд супергероев, в который вошли участники из различных советских республик. Долгие годы героям приходилось скрывать свою сущность, однако в тяжелые для страны времена они вновь берутся за дело.
Доп. информация:
Релиз группы:
Сохранены оригинальные главы как на Bluray
Качество видео: BDRip-AVC Исх. Защитники (2017) Blu-ray RUS 1080p AVC DTS 5.1
Формат видео: MKV
Видео: 1152x482 (2:40:1), 24,00 fps, 3562 Кbps, 0.267 bit/pixe
Аудио: 48 kHz, AC3 Dolby Digital, 3/2 (L,C,R,l,r) + LFE ch, ~448.00 kbps avg

MediaInfo

General
Unique ID : 213602687662645521130051712500644938028 (0xA0B26198C1502B5E91E2FCD838CB812C)
Complete name : E:\Мои рипы\Защитники \Zashchitniki by_IVAN@190282.mkv
Format : Matroska
Format version : Version 4 / Version 2
File size : 2.54 GiB
Duration : 1h 28mn
Overall bit rate : 4 092 Kbps
Movie name : Zashchitniki by_IVAN@190282
Encoded date : UTC 2017-04-23 10:21:06
Writing application : mkvmerge v10.0.0 ('To Drown In You') 64bit
Writing library : libebml v1.3.4 + libmatroska v1.4.5
DURATION : 01:28:57.120000000
NUMBER_OF_FRAMES : 166785
NUMBER_OF_BYTES : 298878720
_STATISTICS_WRITING_APP : mkvmerge v10.0.0 ('To Drown In You') 64bit
_STATISTICS_WRITING_DATE_UTC : 2017-04-23 10:21:06
_STATISTICS_TAGS : BPS DURATION NUMBER_OF_FRAMES NUMBER_OF_BYTES
Attachment : Yes
Video
ID : 1
Format : AVC
Format/Info : Advanced Video Codec
Format profile : High@L4.1
Format settings, CABAC : Yes
Format settings, ReFrames : 11 frames
Codec ID : V_MPEG4/ISO/AVC
Duration : 1h 28mn
Bit rate : 3 562 Kbps
Width : 1 152 pixels
Height : 482 pixels
Display aspect ratio : 2.40:1
Frame rate mode : Constant
Frame rate : 24.000 fps
Color space : YUV
Chroma subsampling : 4:2:0
Bit depth : 8 bits
Scan type : Progressive
Bits/(Pixel*Frame) : 0.267
Stream size : 2.21 GiB (87%)
Title : Zashchitniki by_IVAN@190282
Writing library : x264 core 148 r2762 90a61ec
Encoding settings : cabac=1 / ref=11 / deblock=1:-3:-3 / analyse=0x3:0x113 / me=umh / subme=11 / psy=1 / psy_rd=1.00:0.05 / mixed_ref=1 / me_range=48 / chroma_me=1 / trellis=2 / 8x8dct=1 / cqm=0 / deadzone=21,11 / fast_pskip=0 / chroma_qp_offset=-3 / threads=6 / lookahead_threads=6 / sliced_threads=0 / nr=0 / decimate=1 / interlaced=0 / bluray_compat=0 / constrained_intra=0 / bframes=16 / b_pyramid=2 / b_adapt=2 / b_bias=0 / direct=3 / weightb=1 / open_gop=0 / weightp=2 / keyint=240 / keyint_min=24 / scenecut=40 / intra_refresh=0 / rc_lookahead=60 / rc=crf / mbtree=0 / crf=16.9 / qcomp=0.60 / qpmin=0 / qpmax=69 / qpstep=4 / vbv_maxrate=50000 / vbv_bufsize=62500 / crf_max=0.0 / nal_hrd=none / filler=0 / ip_ratio=1.40 / pb_ratio=1.30 / aq=3:0.70
Language : English
Default : Yes
Forced : No
Color primaries : BT.709
Transfer characteristics : BT.709
Matrix coefficients : BT.709
DURATION : 01:28:57.042000000
NUMBER_OF_FRAMES : 128089
NUMBER_OF_BYTES : 2429521809
_STATISTICS_WRITING_APP : mkvmerge v10.0.0 ('To Drown In You') 64bit
_STATISTICS_WRITING_DATE_UTC : 2017-04-23 10:21:06
_STATISTICS_TAGS : BPS DURATION NUMBER_OF_FRAMES NUMBER_OF_BYTES
Audio
ID : 2
Format : AC-3
Format/Info : Audio Coding 3
Mode extension : CM (complete main)
Format settings, Endianness : Big
Codec ID : A_AC3
Duration : 1h 28mn
Bit rate mode : Constant
Bit rate : 448 Kbps
Channel(s) : 6 channels
Channel positions : Front: L C R, Side: L R, LFE
Sampling rate : 48.0 KHz
Bit depth : 16 bits
Compression mode : Lossy
Stream size : 285 MiB (11%)
Title : Rus
Default : Yes
Forced : No
Menu
00:00:00.000 : en:00:00:00.000
00:00:52.208 : en:00:00:52.208
00:10:50.416 : en:00:10:50.416
00:21:24.375 : en:00:21:24.375
00:33:35.750 : en:00:33:35.750
00:44:08.208 : en:00:44:08.208
00:55:49.083 : en:00:55:49.083
01:06:44.416 : en:01:06:44.416
01:17:46.833 : en:01:17:46.833

x264 log

VIDEO ENCODING
x264 [info]: frame I:950 Avg QP:15.47 size: 87629 PSNR Mean Y:47.78 U:52.46 V:51.75 Avg:48.62 Global:47.80
x264 [info]: frame P:31789 Avg QP:17.55 size: 34364 PSNR Mean Y:45.97 U:52.19 V:51.39 Avg:46.86 Global:45.97
x264 [info]: frame B:95350 Avg QP:19.88 size: 13150 PSNR Mean Y:45.12 U:51.40 V:50.26 Avg:46.04 Global:45.07
x264 [info]: consecutive B-frames: 4.0% 4.8% 8.3% 30.0% 17.7% 22.1% 7.2% 2.3% 1.5% 0.7% 0.4% 0.2% 0.4% 0.2% 0.1% 0.0% 0.2%
x264 [total]: encoded 128089 frames, 1.91 fps, 3641.75 kb/s

Скриншот c названием фильма

Скриншоты

Убедительная просьба пожалуйста кто скачал не бросайте раздачу!!!
[Profile] [PM]
Display posts:    
Reply to topic

Current time is: 27-Sep 16:17

All times are UTC + 3



You cannot post new topics in this forum
You cannot reply to topics in this forum
You cannot edit your posts in this forum
You cannot delete your posts in this forum
You cannot vote in polls in this forum
You cannot attach files in this forum
You can download files in this forum