Строго на запад / Slow West (Джон Маклин / John Maclean) [2015, Великобритания, Новая Зеландия, Боевик, триллер, вестерн, BDRip-AVC] Dub + Sub Eng + Original Eng

Reply to topic
DL-List and Torrent activity
Size:  2.58 GB   |    Registered:  2 years 11 months   |    Completed:  0 times

Seeder not seen: Never

 
   
 
 
Author Message

admin ®

Gender: Male

Longevity: 3 years

Posts: 10017

Post 07-Oct-2017 04:17

[Quote]

Строго на западSlow West«Wanted dead or dead»

Страна: Великобритания, Новая Зеландия
Жанр: Боевик, триллер, вестерн
Год выпуска: 2015
Продолжительность: 01:23:05
Перевод: Профессиональный (дублированный) iTunes
Субтитры: английские
Оригинальная аудиодорожка: английский
Режиссер: Джон Маклин / John Maclean
В ролях: Коди Смит-МакФи, Майкл Фассбендер, Бен Мендельсон, , Хейден Фрост, Карен Писториус, , Эдвин Райт, , Эндрю Робертт
Описание: Фильм рассказывает историю 17-летнего паренька по имени Джей Кавендиш, который путешествует по всей американской границе в поисках девушки, которую он любит. В опасном приключении его сопровождает таинственный путешественник Сайлас.
Доп. информация:
Релиз группы:
Сохранены оригинальные главы как на Bluray
Качество видео: BDRip-AVC | Строго на запад / Slow West (2015) 1080p BD-Remux| HD club
Формат видео: MKV
Видео: 1070x644 (1:661:1), 24,00 fps, 3523 Кbps, 0.213 bit/pixe
Аудио: 48 kHz, AC3 Dolby Digital, 3/2 (L,C,R,l,r) + LFE ch, ~384.00 kbps avg DUB
Аудио 2: 48 kHz, AC3 Dolby Digital, 3/2 (L,C,R,l,r) + LFE ch, ~448.00 kbps avg ENG
Формат субтитров: softsub (SRT)
Доп. информация о субтитрах: отключаемые

Знаете ли Вы что

• Первоначально фильм планировали снимать на 35-мм пленку, однако в итоге сняли на «цифру».
• Съемки фильма проходили в Твайзеле, в Новой Зеландии.
• Это первый игровой полнометражный фильм режиссёра Джона Маклина.

MediaInfo

General
Unique ID : 224160821901427095321750044130467785661 (0xA8A3CDCE157C9B4491CB80137F2A2BBD)
Complete name : D:\Мои рипы\Строго на запад\Slow West by_IVAN@190282.mkv
Format : Matroska
Format version : Version 4 / Version 2
File size : 2.58 GiB
Duration : 1h 23mn
Overall bit rate : 4 443 Kbps
Movie name : Slow West by_IVAN@190282
Encoded date : UTC 2016-02-27 17:27:21
Writing application : mkvmerge v8.8.0 ('Wind at my back') 64bit
Writing library : libebml v1.3.3 + libmatroska v1.4.4
Attachements : cover.jpg
DURATION : 01:17:54.291000000
NUMBER_OF_FRAMES : 583
NUMBER_OF_BYTES : 14884
_STATISTICS_WRITING_APP : mkvmerge v8.8.0 ('Wind at my back') 64bit
_STATISTICS_WRITING_DATE_UT : 2016-02-27 17:27:21
_STATISTICS_TAGS : BPS DURATION NUMBER_OF_FRAMES NUMBER_OF_BYTES
Video
ID : 1
Format : AVC
Format/Info : Advanced Video Codec
Format profile : High@L4.1
Format settings, CABAC : Yes
Format settings, ReFrames : 11 frames
Codec ID : V_MPEG4/ISO/AVC
Duration : 1h 23mn
Bit rate : 3 523 Kbps
Width : 1 070 pixels
Height : 644 pixels
Display aspect ratio : 5:3
Frame rate mode : Constant
Frame rate : 24.000 fps
Color space : YUV
Chroma subsampling : 4:2:0
Bit depth : 8 bits
Scan type : Progressive
Bits/(Pixel*Frame) : 0.213
Stream size : 2.04 GiB (79%)
Title : Slow West by_IVAN@190282
Writing library : x264 core 148 r2665kMod a01e339
Encoding settings : cabac=1 / ref=11 / deblock=1:-3:-2 / analyse=0x3:0x133 / me=umh / subme=11 / psy=1 / fade_compensate=0.00 / psy_rd=1.00:0.05 / mixed_ref=1 / me_range=48 / chroma_me=1 / trellis=2 / 8x8dct=1 / cqm=0 / deadzone=21,11 / fast_pskip=0 / chroma_qp_offset=-3 / threads=6 / lookahead_threads=6 / sliced_threads=0 / nr=0 / decimate=1 / interlaced=0 / bluray_compat=0 / constrained_intra=0 / fgo=0 / bframes=16 / b_pyramid=2 / b_adapt=2 / b_bias=0 / direct=3 / weightb=1 / open_gop=0 / weightp=2 / keyint=240 / keyint_min=23 / scenecut=40 / intra_refresh=0 / rc_lookahead=60 / rc=crf / mbtree=0 / crf=18.0000 / qcomp=0.60 / qpmin=0 / qpmax=69 / qpstep=4 / vbv_maxrate=50000 / vbv_bufsize=62500 / crf_max=0.0 / nal_hrd=none / filler=0 / ip_ratio=1.40 / pb_ratio=1.30 / aq=2:2.00
Language : English
Default : Yes
Forced : No
Color range : Limited
Color primaries : BT.709
Transfer characteristics : BT.709
Matrix coefficients : BT.709
DURATION : 01:23:05.879000000
NUMBER_OF_FRAMES : 119661
NUMBER_OF_BYTES : 2249899406
_STATISTICS_WRITING_APP : mkvmerge v8.8.0 ('Wind at my back') 64bit
_STATISTICS_WRITING_DATE_UT : 2016-02-27 17:27:21
_STATISTICS_TAGS : BPS DURATION NUMBER_OF_FRAMES NUMBER_OF_BYTES
Audio #1
ID : 2
Format : AC-3
Format/Info : Audio Coding 3
Mode extension : CM (complete main)
Format settings, Endianness : Big
Codec ID : A_AC3
Duration : 1h 23mn
Bit rate mode : Constant
Bit rate : 384 Kbps
Channel(s) : 6 channels
Channel positions : Front: L C R, Side: L R, LFE
Sampling rate : 48.0 KHz
Compression mode : Lossy
Stream size : 228 MiB (9%)
Title : Dub
Default : Yes
Forced : No
Audio #2
ID : 3
Format : AC-3
Format/Info : Audio Coding 3
Mode extension : CM (complete main)
Format settings, Endianness : Big
Codec ID : A_AC3
Duration : 1h 23mn
Bit rate mode : Constant
Bit rate : 448 Kbps
Channel(s) : 6 channels
Channel positions : Front: L C R, Side: L R, LFE
Sampling rate : 48.0 KHz
Compression mode : Lossy
Stream size : 266 MiB (10%)
Title : Eng
Language : English
Default : No
Forced : No
Text
ID : 4
Format : UTF-8
Codec ID : S_TEXT/UTF8
Codec ID/Info : UTF-8 Plain Text
Title : Eng
Language : English
Default : No
Forced : No
Menu
00:00:00.000 : en:Chapter 1
00:04:55.128 : en:Chapter 2
00:10:24.165 : en:Chapter 3
00:14:35.541 : en:Chapter 4
00:19:08.397 : en:Chapter 5
00:25:29.236 : en:Chapter 6
00:29:17.756 : en:Chapter 7
00:35:17.282 : en:Chapter 8
00:39:36.291 : en:Chapter 9
00:45:26.641 : en:Chapter 10
00:51:45.436 : en:Chapter 11
00:55:14.186 : en:Chapter 12
01:01:43.909 : en:Chapter 13
01:07:38.596 : en:Chapter 14
01:10:55.960 : en:Chapter 15
01:18:29.330 : en:Chapter 16
01:19:17.000 : en:Chapter 17

x264 log

VIDEO ENCODING
x264 [info]: frame I:999 Avg QP:14.85 size:135203 PSNR Mean Y:47.84 U:50.88 V:50.91 Avg:48.63 Global:46.34
x264 [info]: frame P:28769 Avg QP:15.44 size: 36691 PSNR Mean Y:46.10 U:49.35 V:49.74 Avg:46.93 Global:44.76
x264 [info]: frame B:89893 Avg QP:16.74 size: 11784 PSNR Mean Y:45.79 U:49.24 V:49.45 Avg:46.64 Global:44.37
x264 [info]: consecutive B-frames: 2.6% 4.2% 17.3% 21.2% 14.4% 30.5% 4.2% 2.2% 1.0% 0.6% 0.6% 0.4% 0.2% 0.2% 0.1% 0.1% 0.4%
x264 [total]: encoded 119661 frames, 5.36 fps, 3610.03 kb/s, duration 6:11:55.89

Скриншот c названием фильма

Скриншоты

Убедительная просьба пожалуйста кто скачал не бросайте раздачу!!!
 GOLD TORRENT! DOWNLOAD TRAFFIC DOES NOT CONSIDER! 
Torrent: Registered [ 2017-10-07 04:17 ]   · 3C6EA7EFD5C832143C033384A16785DF66310D94

Download .torrent

Download

13 KB

Status: checked
Completed: 0 times
Size: 2.58 GB
Поделиться:
terms.php
[Profile] [PM]
Display posts:    
Reply to topic

Current time is: 28-Sep 09:32

All times are UTC + 3



You cannot post new topics in this forum
You cannot reply to topics in this forum
You cannot edit your posts in this forum
You cannot delete your posts in this forum
You cannot vote in polls in this forum
You cannot attach files in this forum
You can download files in this forum