Железный человек 2 / Iron Man 2 (Джон Фавро / Jon Favreau) [2010, США, Фантастика, боевик, BDRip-AVC] Dub + AVO Ю.Сербин + AVO А.Гаврилов + Sub Rus,Eng + Original Eng

Reply to topic
DL-List and Torrent activity
Size:  3.72 GB   |    Registered:  3 years   |    Completed:  0 times

Seeder not seen: Never

 
   
 
 
Author Message

admin ®

Gender: Male

Longevity: 3 years

Posts: 10054

Post 07-Oct-2017 03:56

[Quote]

Железный человек 2Iron Man 2«It's not the armor that makes the hero, but the man inside»

Страна: США
Жанр: Фантастика, боевик
Год выпуска: 2010
Продолжительность: 02:04:39
Перевод: Профессиональный (дублированный) [Лицензия BD CEE]
Перевод 2: Авторский (одноголосый закадровый) Юрий Сербин
Перевод 3: Авторский (одноголосый закадровый) Андрей Гаврилов
Субтитры: русские,английские
Оригинальная аудиодорожка: английский
Режиссер: Джон Фавро / Jon Favreau
В ролях:
Роберт Дауни мл., Дон Чидл, Скарлетт Йоханссон, Гвинет Пэлтроу, Сэм Рокуэлл, Микки Рурк, Сэмюэл Л. Джексон, Кларк Грегг, Джон Слэттери, Джон Фавро.
Описание: Прошло полгода с тех пор, как мир узнал, что миллиардер-изобретатель Тони Старк является обладателем уникальной кибер-брони Железного человека. Общественность требует, чтобы Старк передал технологию брони правительству США, но Тони не хочет разглашать её секреты, потому что боится, что она попадёт не в те руки. Между тем, Иван Ванко — сын русского учёного когда-то работавшего на фирму Старка, но потом уволенного и лишенного всего, намерен отомстить Тони за беды своей семьи. Для чего сооружает своё высокотехнологичное оружие.
Доп. информация:
Релиз группы:
Качество видео: BDRip-AVC | Железный человек 2 / Iron Man 2(2010) 1080p BD-Remux|
Исходник:BDRemux 1080p
Формат видео: MKV
Видео: 1120x476 (2,40:1), 23.976 fps, 2480 Кbps, 0.194 bit/pixel
Аудио: 48 kHz, AC3 Dolby Digital, 3/2 (L,C,R,l,r) + LFE ch, 448.00 kbps | DUB
Аудио 2: 48 kHz, AC3 Dolby Digital, 3/2 (L,C,R,l,r) + LFE ch, 448.00 kbps | ENG
Аудио 3: 48 kHz, AC3 Dolby Digital, 3/2 (L,C,R,l,r) + LFE ch, 448.00 kbps | AVO
Аудио 4: 48 kHz, AC3 Dolby Digital, 3/2 (L,C,R,l,r) + LFE ch, 448.00 kbps | AVO
Формат субтитров: softsub (SRT)
Доп. информация о субтитрах: отключаемые

MediaInfo

General
Unique ID : 229486419410169408832436252522326667367 (0xACA57A08D450F3999C58CBB3FEA63067)
Complete name : E:\Мои рипы\Железный человек 2\Железный человек 2 by_IVAN@190282.mkv
Format : Matroska
Format version : Version 4 / Version 2
File size : 2.94 GiB
Duration : 2h 4mn
Overall bit rate : 3 380 Kbps
Encoded date : UTC 2014-09-25 00:10:27
Writing application : mkvmerge v7.0.0 ('Where We Going') 64bit built on Jun 9 2014 15:16:27
Writing library : libebml v1.3.0 + libmatroska v1.4.1
DURATION : 02:04:09.566000000
NUMBER_OF_FRAMES : 1524
NUMBER_OF_BYTES : 60357
_STATISTICS_WRITING_APP : mkvmerge v7.0.0 ('Where We Going') 64bit built on Jun 9 2014 15:16:27
_STATISTICS_WRITING_DATE_UTC : 2014-09-25 00:10:27
_STATISTICS_TAGS : BPS DURATION NUMBER_OF_FRAMES NUMBER_OF_BYTES
Video
ID : 1
Format : AVC
Format/Info : Advanced Video Codec
Format profile : High@L4.1
Format settings, CABAC : Yes
Format settings, ReFrames : 13 frames
Codec ID : V_MPEG4/ISO/AVC
Duration : 2h 4mn
Bit rate : 2 480 Kbps
Width : 1 120 pixels
Height : 476 pixels
Display aspect ratio : 2.40:1
Original display aspect ratio : 2.40:1
Frame rate mode : Constant
Frame rate : 23.976 fps
Color space : YUV
Chroma subsampling : 4:2:0
Bit depth : 8 bits
Scan type : Progressive
Bits/(Pixel*Frame) : 0.194
Stream size : 2.10 GiB (72%)
Writing library : x264 core 142 r2479kMod dd79a61
Encoding settings : cabac=1 / ref=13 / deblock=1:-3:-3 / analyse=0x3:0x113 / me=umh / subme=11 / psy=1 / fade_compensate=0.00 / psy_rd=1.00:0.15 / mixed_ref=1 / me_range=48 / chroma_me=1 / trellis=2 / 8x8dct=1 / cqm=0 / deadzone=21,11 / fast_pskip=0 / chroma_qp_offset=0 / threads=6 / lookahead_threads=6 / sliced_threads=0 / slices=10 / nr=0 / decimate=1 / interlaced=0 / bluray_compat=0 / constrained_intra=0 / fgo=0 / bframes=16 / b_pyramid=2 / b_adapt=2 / b_bias=0 / direct=3 / weightb=1 / open_gop=1 / weightp=2 / keyint=240 / keyint_min=23 / scenecut=40 / intra_refresh=0 / rc_lookahead=40 / rc=2pass / mbtree=0 / bitrate=2480 / ratetol=1.0 / qcomp=0.60 / qpmin=0 / qpmax=69 / qpstep=4 / cplxblur=20.0 / qblur=0.5 / vbv_maxrate=50000 / vbv_bufsize=62500 / nal_hrd=none / filler=0 / ip_ratio=1.40 / pb_ratio=1.30 / aq=1:1.00
Default : Yes
Forced : No
Color primaries : BT.709
Transfer characteristics : BT.709
Matrix coefficients : BT.709
Audio #1
ID : 2
Format : AC-3
Format/Info : Audio Coding 3
Mode extension : CM (complete main)
Format settings, Endianness : Big
Codec ID : A_AC3
Duration : 2h 4mn
Bit rate mode : Constant
Bit rate : 448 Kbps
Channel(s) : 6 channels
Channel positions : Front: L C R, Side: L R, LFE
Sampling rate : 48.0 KHz
Bit depth : 16 bits
Compression mode : Lossy
Stream size : 399 MiB (13%)
Default : Yes
Forced : No
Audio #2
ID : 3
Format : AC-3
Format/Info : Audio Coding 3
Mode extension : CM (complete main)
Format settings, Endianness : Big
Codec ID : A_AC3
Duration : 2h 4mn
Bit rate mode : Constant
Bit rate : 448 Kbps
Channel(s) : 6 channels
Channel positions : Front: L C R, Side: L R, LFE
Sampling rate : 48.0 KHz
Bit depth : 16 bits
Compression mode : Lossy
Stream size : 399 MiB (13%)
Default : No
Forced : No
Text #1
ID : 4
Format : UTF-8
Codec ID : S_TEXT/UTF8
Codec ID/Info : UTF-8 Plain Text
Default : Yes
Forced : No
Text #2
ID : 5
Format : UTF-8
Codec ID : S_TEXT/UTF8
Codec ID/Info : UTF-8 Plain Text
Default : No
Forced : No

x264 log

VIDEO ENCODING
x264 [info]: frame I:1441 Avg QP:16.38 size: 71872
x264 [info]: frame P:44387 Avg QP:19.55 size: 23301
x264 [info]: frame B:133487 Avg QP:21.51 size: 8845
x264 [info]: consecutive B-frames: 4.4% 6.1% 9.4% 20.7% 15.6% 30.6% 5.2% 1.7% 1.8% 1.3% 0.8% 0.5% 0.7% 0.7% 0.2% 0.1% 0.3%
x264 [info]: kb/s:2480.10
x264 [total]: encoded 179315 frames, 7.38 fps, 2480.10 kb/s, duration 6:44:48.96

Скриншот c названием фильма

Скриншоты

 GOLD TORRENT! DOWNLOAD TRAFFIC DOES NOT CONSIDER! 
Torrent: Registered [ 2017-10-07 03:56 ]   · 5C0282354B9C6F0A58816EE154BE7BD6BC7C052F

Download .torrent

Download

19 KB

Status: checked
Completed: 0 times
Size: 3.72 GB
Поделиться:
terms.php
[Profile] [PM]
Display posts:    
Reply to topic

Current time is: 23-Oct 05:18

All times are UTC + 3



You cannot post new topics in this forum
You cannot reply to topics in this forum
You cannot edit your posts in this forum
You cannot delete your posts in this forum
You cannot vote in polls in this forum
You cannot attach files in this forum
You can download files in this forum