Эффект Колибри / Hummingbird (Стивен Найт / Steven Knight) [2013, США , Великобритания , Триллер ,Драма , Криминал, Боевик, BDRip-AVC] Dub + Sub Rus, Eng + Original,Eng

Reply to topic
DL-List and Torrent activity
Size:  2.52 GB   |    Registered:  3 months 12 days   |    Completed:  0 times

Seeder not seen: Never

 
   
 
 
Author Message

admin ®

Gender: Male

Longevity: 2 years 11 months

Posts: 10016

Post 07-Oct-2017 03:46

[Quote]

Эффект КолибриHummingbird«Месть не дает облегчения»

Страна: США | Великобритания | IM Global | Lionsgate | Shoebox Films
Жанр: Триллер | Драма | Криминал | Боевик
Год выпуска: 2013
Продолжительность: 01:40:22
Перевод: Профессиональный (дублированный) BD
Субтитры: русские,английские
Оригинальная аудиодорожка: английский
Режиссер: Стивен Найт / Steven Knight
В ролях: Джейсон Стэйтем, Агата Бузек, Вики МакКлюр, Бенедикт Вонг, Ли Асквит-Коу, Ли Николас Харрис, Крис Коулин, Санти Скинелли, Дэвид Брэдли (III), Шиван Хьюлетт
Описание: Бывший спецназовец Джоуи Джонс пытается начать новую жизнь. Он соглашается работать на азиатскую мафию. Но проникая все глубже в криминальный мир родного города, он понимает, что не может спокойно смотреть на творящееся в нем беззаконие. Когда от рук бандитов погибает его возлюбленная Изабель, Джоуи решает восстановить справедливость. Он начинает расследование, которое ведет его на самый верх преступного синдиката.
Доп. информация:
Релиз группы:
Сохранены оригинальные главы как на BD
Качество видео: BDRip-AVC |Эффект Колибри / Hummingbird (2013) 1080p BD-Remux| Kinozal |
Формат видео: MKV
Видео: 1152x480 (2:40:1), 23,976 fps, 2632 Кbps, 0.199 bit/pixe
Аудио: 48 kHz, AC3 Dolby Digital, 3/2 (L,C,R,l,r) + LFE ch, ~448.00 kbps avg DUB
Аудио 2: 48 kHz, AC3 Dolby Digital, 3/2 (L,C,R,l,r) + LFE ch, ~448.00 kbps avg ENG
Формат субтитров: softsub (SRT)
Доп. информация о субтитрах: отключаемые

MediaInfo

General
Unique ID : 246689547193724408001796148222873572767 (0xB996ADB81FF5FC2D8A4F9F6C9F54159F)
Complete name : E:\Мои рипы\Эффект колибри\Hummingbird by_IVAN@.190282.mkv
Format : Matroska
Format version : Version 4 / Version 2
File size : 2.52 GiB
Duration : 1h 40mn
Overall bit rate : 3 600 Kbps
Encoded date : UTC 2016-02-28 04:37:54
Writing application : mkvmerge v8.8.0 ('Wind at my back') 64bit
Writing library : libebml v1.3.3 + libmatroska v1.4.4
Attachements : cover.jpg
DURATION : 01:34:51.937000000
NUMBER_OF_FRAMES : 842
NUMBER_OF_BYTES : 24301
_STATISTICS_WRITING_APP : mkvmerge v8.8.0 ('Wind at my back') 64bit
_STATISTICS_WRITING_DATE_UT : 2016-02-28 04:37:54
_STATISTICS_TAGS : BPS DURATION NUMBER_OF_FRAMES NUMBER_OF_BYTES
Video
ID : 1
Format : AVC
Format/Info : Advanced Video Codec
Format profile : High@L4.1
Format settings, CABAC : Yes
Format settings, ReFrames : 13 frames
Codec ID : V_MPEG4/ISO/AVC
Duration : 1h 40mn
Bit rate : 2 633 Kbps
Width : 1 152 pixels
Height : 480 pixels
Display aspect ratio : 2.40:1
Frame rate mode : Constant
Frame rate : 23.976 fps
Color space : YUV
Chroma subsampling : 4:2:0
Bit depth : 8 bits
Scan type : Progressive
Bits/(Pixel*Frame) : 0.199
Stream size : 1.85 GiB (73%)
Writing library : x264 core 144 r2525kMod 40bb568
Encoding settings : cabac=1 / ref=13 / deblock=1:-3:-3 / analyse=0x3:0x113 / me=umh / subme=11 / psy=1 / fade_compensate=0.00 / psy_rd=1.00:0.15 / mixed_ref=1 / me_range=48 / chroma_me=1 / trellis=2 / 8x8dct=1 / cqm=0 / deadzone=21,11 / fast_pskip=0 / chroma_qp_offset=0 / threads=6 / lookahead_threads=6 / sliced_threads=0 / slices=10 / nr=0 / decimate=1 / interlaced=0 / bluray_compat=0 / constrained_intra=0 / fgo=0 / bframes=16 / b_pyramid=2 / b_adapt=2 / b_bias=0 / direct=1 / weightb=1 / open_gop=1 / weightp=2 / keyint=240 / keyint_min=23 / scenecut=40 / intra_refresh=0 / rc_lookahead=40 / rc=crf / mbtree=0 / crf=16.8000 / qcomp=0.60 / qpmin=0 / qpmax=69 / qpstep=4 / vbv_maxrate=50000 / vbv_bufsize=62500 / crf_max=0.0 / nal_hrd=none / filler=0 / ip_ratio=1.40 / pb_ratio=1.30 / aq=1:1.00
Default : Yes
Forced : No
Color range : Limited
Color primaries : BT.709
Transfer characteristics : BT.709
Matrix coefficients : BT.709
Audio #1
ID : 2
Format : AC-3
Format/Info : Audio Coding 3
Mode extension : CM (complete main)
Format settings, Endianness : Big
Codec ID : A_AC3
Duration : 1h 40mn
Bit rate mode : Constant
Bit rate : 448 Kbps
Channel(s) : 6 channels
Channel positions : Front: L C R, Side: L R, LFE
Sampling rate : 48.0 KHz
Compression mode : Lossy
Stream size : 322 MiB (12%)
Title : Dub
Default : Yes
Forced : No
Audio #2
ID : 3
Format : AC-3
Format/Info : Audio Coding 3
Mode extension : CM (complete main)
Format settings, Endianness : Big
Codec ID : A_AC3
Duration : 1h 40mn
Bit rate mode : Constant
Bit rate : 448 Kbps
Channel(s) : 6 channels
Channel positions : Front: L C R, Side: L R, LFE
Sampling rate : 48.0 KHz
Compression mode : Lossy
Stream size : 322 MiB (12%)
Title : Eng
Default : No
Forced : No
Text #1
ID : 4
Format : UTF-8
Codec ID : S_TEXT/UTF8
Codec ID/Info : UTF-8 Plain Text
Title : Rus
Default : Yes
Forced : No
Text #2
ID : 5
Format : UTF-8
Codec ID : S_TEXT/UTF8
Codec ID/Info : UTF-8 Plain Text
Title : Eng
Default : No
Forced : No
Menu
00:00:00.000 : en:[ 1 ]
00:09:27.108 : en:[ 2 ]
00:23:59.062 : en:[ 3 ]
00:36:26.225 : en:[ 4 ]
00:49:07.486 : en:[ 5 ]
01:00:01.514 : en:[ 6 ]
01:10:58.170 : en:[ 7 ]
01:23:54.654 : en:[ 8 ]
01:32:19.075 : en:[ 9 ]
01:40:03.080 : en:[ 10 ]

x264 log

VIDEO ENCODING
x264 [info]: frame I:1133 Avg QP:15.86 size: 77830
x264 [info]: frame P:35330 Avg QP:17.50 size: 27639
x264 [info]: frame B:107940 Avg QP:18.47 size: 8970
x264 [info]: consecutive B-frames: 3.8% 5.1% 12.6% 17.4% 18.4% 32.3% 5.6% 1.3% 1.3% 0.7% 0.6% 0.3% 0.2% 0.2% 0.0% 0.0% 0.1%
x264 [info]: kb/s:2700.29
x264 [total]: encoded 144403 frames, 7.32 fps, 2700.29 kb/s, duration 5:28:46.82

Скриншот c названием фильма

Скриншоты

Убедительная просьба пожалуйста кто скачал не бросайте раздачу!!!
 GOLD TORRENT! DOWNLOAD TRAFFIC DOES NOT CONSIDER! 
Torrent: Registered [ 2020-06-06 07:06 ]   · 18D3CFF6B15E0A7E578A1B63007EDC0C3D47BCC0

Download .torrent

Download

13 KB

Status: checked
Completed: 0 times
Size: 2.52 GB
Поделиться:
terms.php
[Profile] [PM]
Display posts:    
Reply to topic

Current time is: 18-Sep 14:17

All times are UTC + 3



You cannot post new topics in this forum
You cannot reply to topics in this forum
You cannot edit your posts in this forum
You cannot delete your posts in this forum
You cannot vote in polls in this forum
You cannot attach files in this forum
You can download files in this forum