Глубоководный горизонт / Deepwater Horizon (Питер Берг / Peter Berg) [2016, США, Боевик, триллер, драма, BDRip-AVC] Dub + Sub Rus, Eng + Original Eng

Reply to topic
DL-List and Torrent activity
Size:  4.09 GB   |    Registered:  5 months 20 days   |    Completed:  0 times

Seeder not seen: Never

 
   
 
 
Author Message

admin ®

Gender: Male

Longevity: 3 years 2 months

Posts: 10109

Post 07-Oct-2017 03:27

[Quote]

Глубоководный горизонтDeepwater Horizon«When faced with our darkest hour, hope is not a tactic»

Страна: США
Жанр: Боевик, триллер, драма
Год выпуска: 2016
Продолжительность: 01:47:17
Перевод: Профессиональный (дублированный) Bluray RUS
Субтитры: русские,английские
Оригинальная аудиодорожка: английский
Режиссер: Питер Берг / Peter Berg
В ролях: Марк Уолберг, Курт Расселл, Джон Малкович, Джина Родригез, Дилан О`Брайэн, Кейт Хадсон, Итэн Сапли, Генри Фрост, Дуглас М. Гриффин, Сью-Линн Ансари, Брэд Лелэнд, Дж.Д. Эвермор
Описание: Отправляясь на очередную вахту и прощаясь с семьями, они не подозревали, что могут не вернуться… Это основанная на реальных событиях история о страшной аварии на нефтяной платформе «Глубоководный горизонт», которая произошла в 2010 году в Мексиканском заливе. Хроника беспримерного мужества и отваги перед лицом одной из самых страшных техногенных катастроф в мировой истории.
Доп. информация:
Релиз группы:
Сохранены оригинальные главы как на Bluray
Качество видео: BDRip-AVC | Глубоководный горизонт / Deepwater Horizon (2016) 1080p BD-Remux|HD Club|
Формат видео: MKV
Видео: 1152x480 (2:40:1), 23,976 fps, 4461 Кbps, 0.336 bit/pixe
Аудио: 48 kHz, AC3 Dolby Digital, 3/2 (L,C,R,l,r) + LFE ch, ~448.00 kbps avg | DUB
Аудио 2: 48 kHz, AC3 Dolby Digital, 3/2 (L,C,R,l,r) + LFE ch, ~448.00 kbps avg | ENG
Формат субтитров: softsub (SRT)
Доп. информация о субтитрах: отключаемые

MediaInfo

General
Unique ID : 193308014927165300769969793745695824424 (0x916DC4FA454E6933B525C36D197C5A28)
Complete name : D:\Мои рипы\Глубоководный горизонт\Deepwater Horizon by_IVAN@190282.mkv
Format : Matroska
Format version : Version 4 / Version 2
File size : 4.09 GiB
Duration : 1h 47mn
Overall bit rate : 5 464 Kbps
Movie name : Deepwater Horizon by_IVAN@190282
Encoded date : UTC 2017-01-28 20:27:40
Writing application : mkvmerge v9.8.0 ('Kuglblids') 64bit
Writing library : libebml v1.3.4 + libmatroska v1.4.5
Attachements : cover.jpg
DURATION : 01:36:47.467000000
NUMBER_OF_FRAMES : 1655
NUMBER_OF_BYTES : 58825
_STATISTICS_WRITING_APP : mkvmerge v9.8.0 ('Kuglblids') 64bit
_STATISTICS_WRITING_DATE_UT : 2017-01-28 20:27:40
_STATISTICS_TAGS : BPS DURATION NUMBER_OF_FRAMES NUMBER_OF_BYTES
Video
ID : 1
Format : AVC
Format/Info : Advanced Video Codec
Format profile : High@L4.1
Format settings, CABAC : Yes
Format settings, ReFrames : 11 frames
Codec ID : V_MPEG4/ISO/AVC
Duration : 1h 47mn
Bit rate : 4 459 Kbps
Width : 1 152 pixels
Height : 480 pixels
Display aspect ratio : 2.40:1
Frame rate mode : Constant
Frame rate : 23.976 fps
Color space : YUV
Chroma subsampling : 4:2:0
Bit depth : 8 bits
Scan type : Progressive
Bits/(Pixel*Frame) : 0.336
Stream size : 3.34 GiB (82%)
Title : Deepwater Horizon by_IVAN@190282
Writing library : x264 core 148 r2721kMod 72d53ab
Encoding settings : cabac=1 / ref=11 / deblock=1:-3:-3 / analyse=0x3:0x113 / me=umh / subme=11 / psy=1 / fade_compensate=0.00 / psy_rd=1.00:0.05 / mixed_ref=1 / me_range=48 / chroma_me=1 / trellis=2 / 8x8dct=1 / cqm=0 / deadzone=21,11 / fast_pskip=0 / chroma_qp_offset=-3 / threads=6 / lookahead_threads=6 / sliced_threads=0 / nr=0 / decimate=1 / interlaced=0 / bluray_compat=0 / constrained_intra=0 / fgo=0 / bframes=16 / b_pyramid=2 / b_adapt=2 / b_bias=0 / direct=3 / weightb=1 / open_gop=0 / weightp=2 / keyint=240 / keyint_min=23 / scenecut=40 / intra_refresh=0 / rc_lookahead=60 / rc=crf / mbtree=0 / crf=17.0000 / qcomp=0.60 / qpmin=0 / qpmax=69 / qpstep=4 / vbv_maxrate=50000 / vbv_bufsize=62500 / crf_max=0.0 / nal_hrd=none / filler=0 / ip_ratio=1.40 / pb_ratio=1.30 / aq=3:0.80
Language : English
Default : Yes
Forced : No
Color range : Limited
Color primaries : BT.709
Transfer characteristics : BT.709
Matrix coefficients : BT.709
DURATION : 01:47:17.473000000
NUMBER_OF_FRAMES : 154345
NUMBER_OF_BYTES : 3673912510
_STATISTICS_WRITING_APP : mkvmerge v9.8.0 ('Kuglblids') 64bit
_STATISTICS_WRITING_DATE_UT : 2017-01-28 20:27:40
_STATISTICS_TAGS : BPS DURATION NUMBER_OF_FRAMES NUMBER_OF_BYTES
Audio #1
ID : 2
Format : AC-3
Format/Info : Audio Coding 3
Mode extension : CM (complete main)
Format settings, Endianness : Big
Codec ID : A_AC3
Duration : 1h 47mn
Bit rate mode : Constant
Bit rate : 448 Kbps
Channel(s) : 6 channels
Channel positions : Front: L C R, Side: L R, LFE
Sampling rate : 48.0 KHz
Compression mode : Lossy
Stream size : 344 MiB (8%)
Title : Rus Bluray
Default : Yes
Forced : No
Audio #2
ID : 3
Format : AC-3
Format/Info : Audio Coding 3
Mode extension : CM (complete main)
Format settings, Endianness : Big
Codec ID : A_AC3
Duration : 1h 47mn
Bit rate mode : Constant
Bit rate : 448 Kbps
Channel(s) : 6 channels
Channel positions : Front: L C R, Side: L R, LFE
Sampling rate : 48.0 KHz
Compression mode : Lossy
Stream size : 344 MiB (8%)
Title : Eng
Language : English
Default : No
Forced : No
Text #1
ID : 4
Format : UTF-8
Codec ID : S_TEXT/UTF8
Codec ID/Info : UTF-8 Plain Text
Title : Rus
Default : No
Forced : No
Text #2
ID : 5
Format : UTF-8
Codec ID : S_TEXT/UTF8
Codec ID/Info : UTF-8 Plain Text
Title : Eng
Language : English
Default : No
Forced : No
Text #3
ID : 6
Format : UTF-8
Codec ID : S_TEXT/UTF8
Codec ID/Info : UTF-8 Plain Text
Title : Eng SDH
Default : No
Forced : No
Menu
00:00:00.000 : en:00:00:00.000
00:07:01.211 : en:00:07:01.211
00:12:32.625 : en:00:12:32.625
00:19:34.463 : en:00:19:34.463
00:27:17.218 : en:00:27:17.218
00:34:52.631 : en:00:34:52.631
00:44:29.832 : en:00:44:29.832
00:48:04.921 : en:00:48:04.921
00:53:47.599 : en:00:53:47.599
00:58:05.148 : en:00:58:05.148
01:05:44.606 : en:01:05:44.606
01:10:06.868 : en:01:10:06.868
01:16:02.932 : en:01:16:02.932
01:20:44.381 : en:01:20:44.381
01:27:37.667 : en:01:27:37.667
01:31:37.823 : en:01:31:37.823

x264 log

VIDEO ENCODING
x264 [info]: frame I:934 Avg QP:15.02 size: 91011 PSNR Mean Y:48.95 U:52.59 V:51.76 Avg:49.71 Global:48.63
x264 [info]: frame P:40952 Avg QP:16.42 size: 43067 PSNR Mean Y:47.60 U:51.19 V:50.59 Avg:48.41 Global:47.43
x264 [info]: frame B:112459 Avg QP:17.33 size: 16230 PSNR Mean Y:46.57 U:51.13 V:49.96 Avg:47.46 Global:46.22
x264 [info]: consecutive B-frames: 4.9% 6.2% 13.9% 24.4% 17.5% 21.9% 4.0% 1.2% 1.1% 0.9% 0.5% 0.4% 0.6% 0.5% 0.3% 0.3% 1.3%
x264 [total]: encoded 154345 frames, 1.43 fps, 4497.66 kb/s, duration 30:00:31.82

Скриншот c названием фильма

Скриншоты

Сравнения

Source by_IVAN@190282 SOURCE VS by_IVAN@190282 http://screenshotcomparison.com/comparison/195857/picture:4
Убедительная просьба пожалуйста кто скачал не бросайте раздачу!!!
 GOLD TORRENT! DOWNLOAD TRAFFIC DOES NOT CONSIDER! 
Torrent: Registered [ 2020-06-07 03:27 ]   · 1031D4040BB3CC86121FF92484001B223AC96E88

Download .torrent

Download

11 KB

Status: checked
Completed: 0 times
Size: 4.09 GB
Поделиться:
terms.php
[Profile] [PM]
Display posts:    
Reply to topic

Current time is: 27-Nov 12:13

All times are UTC + 3



You cannot post new topics in this forum
You cannot reply to topics in this forum
You cannot edit your posts in this forum
You cannot delete your posts in this forum
You cannot vote in polls in this forum
You cannot attach files in this forum
You can download files in this forum